Series Info

# of Seasons: 1
Country: US
Air Day: Wednesday
Air Time: 8:30 PM
First Aired: 2012-09-12
Rating:
Series Status: New Series
Runtime: 30 Minutes
Network: NBC
Classification: Scripted
TVDB Rating: 0.0
External Links:   

 Guys with Kids (2012)

TV Series  –  tvComedy
3.7

Your rating:

   -/10
Ratings: 3.7/10 from 16 users
Reviews: write review | 6 critic

 

30-something dads struggle as parents because they are still children at heart.

General
Complete name : Guys.With.Kids.S01E05.Gary.s.Day.Off.1080p.WEB-DL.DD5.1.H.264-BS.mkv
Format : Matroska
Format version : Version 4 / Version 2
File size : 865 MiB
Duration : 21mn 32s
Overall bit rate : 5 615 Kbps

Video
ID : 1
Format : AVC
Format/Info : Advanced Video Codec
Format profile : High@L4.0
Format settings, CABAC : Yes
Format settings, ReFrames : 4 frames
Codec ID : V_MPEG4/ISO/AVC
Duration : 21mn 32s
Bit rate : 5 120 Kbps
Width : 1 920 pixels
Height : 1 080 pixels
Display aspect ratio : 16:9
Frame rate mode : Constant
Frame rate : 23.976 fps
Color space : YUV
Chroma subsampling : 4:2:0
Bit depth : 8 bits
Scan type : Progressive
Bits/(Pixel*Frame) : 0.103
Stream size : 789 MiB (91%)
Language : English
Default : Yes
Forced : No
Color primaries : BT.709
Transfer characteristics : BT.709
Matrix coefficients : BT.709

Audio
ID : 2
Format : AC-3
Format/Info : Audio Coding 3
Mode extension : CM (complete main)
Format settings, Endianness : Big
Codec ID : A_AC3
Duration : 21mn 32s
Bit rate mode : Constant
Bit rate : 384 Kbps
Channel(s) : 6 channels
Channel positions : Front: L C R, Side: L R, LFE
Sampling rate : 48.0 KHz
Bit depth : 16 bits
Compression mode : Lossy
Stream size : 59.2 MiB (7%)
Language : English
Default : Yes
Forced : No

Text
ID : 3
Format : UTF-8
Codec ID : S_TEXT/UTF8
Codec ID/Info : UTF-8 Plain Text
Title : CC
Language : English
Default : Yes
Forced : No

File Name Size
Guys.With.Kids.S01E01.Pilot.1080p.WEB DL.DD5.1.H.264 BS.mkv 878.45 MB
Guys.With.Kids.S01E02.Chris’.New.Girlfriend.1080p.WEB DL.DD5.1.H.264 BS.mkv 836.69 MB
Guys.With.Kids.S01E03.Marny.Wants.a.Girl.1080p.WEB DL.DD5.1.H.264 BS.mkv 871.07 MB
Guys.With.Kids.S01E04.The.Standoff.1080p.WEB DL.DD5.1.H.264 BS.mkv 831.94 MB
Guys.With.Kids.S01E05.Gary’s.Day.Off.1080p.WEB DL.DD5.1.H.264 BS.mkv 865.28 MB
Guys.With.Kids.S01E06.Apartment.Halloween.1080p.WEB DL.DD5.1.H.264 BS.mkv 824.92 MB
Guys.With.Kids.S01E07.The.Bathroom.Incident.1080p.WEB DL.DD5.1.H.264 BS.mkv 825.88 MB
Guys.With.Kids.S01E08.First.Birthday.1080p.WEB DL.DD5.1.H.264 BS.mkv 819.04 MB
Guys.With.Kids.S01E09.Thanksgiving.1080p.WEB DL.DD5.1.H.264 BS.mkv 884.54 MB
Guys.With.Kids.S01E10.Christmas.1080p.WEB DL.DD5.1.H.264 BS.mkv 881.44 MB
Guys.With.Kids.S01E11.First.Word.1080p.WEB DL.DD5.1.H.264 BS.mkv 856.46 MB
Guys.With.Kids.S01E12.Marny’s.Dad.1080p.WEB DL.DD5.1.H.264 BS.mkv 868.85 MB
Guys.With.Kids.S01E13.Me.Time.1080p.WEB DL.DD5.1.H.264 BS.mkv 878.21 MB
Guys.With.Kids.S01E14.The.Will.1080p.WEB DL.DD5.1.H.264 BS.mkv 851.06 MB
Guys.With.Kids.S01E15.Gary’s.Idea.1080p.WEB DL.DD5.1.H.264 BS.mkv 841.61 MB
Guys.With.Kids.S01E16.Rare.Breed.1080p.WEB DL.DD5.1.H.264 BS.mkv 813.72 MB
Guys.With.Kids.S01E17.Divorce.Party.1080p.WEB DL.DD5.1.H.264 BS.mkv 810.17 MB

Screenshot:

Sign up via clicking banner and a file link to creat a premium account.

ExtMatrix Download Links

Guys.With.Kids.S01E01.Pilot.1080p.WEB-DL.DD5.1.H.264-BS.mkv
Guys.With.Kids.S01E02.Chris..New.Girlfriend.1080p.WEB-DL.DD5.1.H.264-BS.mkv
Guys.With.Kids.S01E03.Marny.Wants.a.Girl.1080p.WEB-DL.DD5.1.H.264-BS.mkv
Guys.With.Kids.S01E04.The.Standoff.1080p.WEB-DL.DD5.1.H.264-BS.mkv
Guys.With.Kids.S01E05.Gary.s.Day.Off.1080p.WEB-DL.DD5.1.H.264-BS.mkv
Guys.With.Kids.S01E06.Apartment.Halloween.1080p.WEB-DL.DD5.1.H.264-BS.mkv
Guys.With.Kids.S01E07.The.Bathroom.Incident.1080p.WEB-DL.DD5.1.H.264-BS.mkv
Guys.With.Kids.S01E08.First.Birthday.1080p.WEB-DL.DD5.1.H.264-BS.mkv
Guys.With.Kids.S01E09.Thanksgiving.1080p.WEB-DL.DD5.1.H.264-BS.mkv
Guys.With.Kids.S01E10.Christmas.1080p.WEB-DL.DD5.1.H.264-BS.mkv
Guys.With.Kids.S01E11.First.Word.1080p.WEB-DL.DD5.1.H.264-BS.mkv
Guys.With.Kids.S01E12.Marny.s.Dad.1080p.WEB-DL.DD5.1.H.264-BS.mkv
Guys.With.Kids.S01E13.Me.Time.1080p.WEB-DL.DD5.1.H.264-BS.mkv
Guys.With.Kids.S01E14.The.Will.1080p.WEB-DL.DD5.1.H.264-BS.mkv
Guys.With.Kids.S01E15.Gary.s.Idea.1080p.WEB-DL.DD5.1.H.264-BS.mkv
Guys.With.Kids.S01E16.Rare.Breed.1080p.WEB-DL.DD5.1.H.264-BS.mkv
Guys.With.Kids.S01E17.Divorce.Party.1080p.WEB-DL.DD5.1.H.264-BS.mkv