Halloween III Season of the Witch 1982 720p BluRay x264-PSYCHD
Halloween III Season of the Witch 1982 720p BluRay x264-PSYCHD

 Halloween III: Season of the Witch (1982)

98 min  –  Horror | Mystery | Sci-Fi  -
4.1

Your rating:

   -/10
Ratings: 4.1/10 from 17,876 users
Reviews: 476 user | 108 critic

 

A large Halloween mask-making company has plans to kill millions of American children with something sinister hidden in Halloween masks.

 

Director:

Tommy Lee Wallace

Stars:

 

 

Date…………..: 11/09/2012

General
Complete name :halloween.iii.season.of.the.witch.1982.720p.bluray.x264-psychd.mkv
Format : Matroska
Format version : Version 2
File size : 4.37 GiB
Duration : 1h 38mn
Overall bit rate : 6 380 Kbps

Video
ID : 1
Format : AVC
Duration : 1h 38mn
Bit rate : 4 871 Kbps
Width : 1 280 pixels
Height : 544 pixels
Display aspect ratio : 2.35:1
Frame rate : 23.976 fps
Bits/(Pixel*Frame) : 0.292
Stream size : 3.25 GiB (74%)
Encoding settings : cabac=1 / ref=5 / deblock=1:0:0 / analyse=0x3:0x113 / me=umh / subme=8 /

Audio
ID : 2
Format : DTS
Format/Info : Digital Theater Systems
Codec ID : A_DTS
Duration : 1h 38mn
Bit rate mode : Constant
Bit rate : 1 510 Kbps
Channel(s) : 2 channels
Channel positions : Front: L R
Sampling rate : 48.0 KHz
Bit depth : 24 bits
Compression mode : Lossy
Stream size : 1.03 GiB (24%)
Language : English
Default : Yes
Forced : No

Menu
00:00:01.001 : en:00:00:01.001
00:06:27.387 : en:00:06:27.387
00:09:01.166 : en:00:09:01.166
00:16:15.600 : en:00:16:15.600
00:20:48.247 : en:00:20:48.247
00:25:55.554 : en:00:25:55.554
00:31:27.886 : en:00:31:27.886
00:36:25.183 : en:00:36:25.183
00:41:09.467 : en:00:41:09.467
00:45:29.352 : en:00:45:29.352
00:49:39.602 : en:00:49:39.602
00:54:23.260 : en:00:54:23.260
01:03:06.408 : en:01:03:06.408
01:11:12.268 : en:01:11:12.268
01:15:17.513 : en:01:15:17.513
01:21:08.864 : en:01:21:08.864
01:28:22.923 : en:01:28:22.923
01:33:13.213 : en:01:33:13.213

Screenshot:

Halloween III Season of the Witch 1982 720p BluRay x264-PSYCHD

Sign up via clicking banner and a file link to creat a premium account.

ExtMatrix Download Links