Hart of Dixie S01 720p WEB-DL DD5 1 h 264-ViPER|CtrlHD
Hart of Dixie S01 720p WEB-DL DD5 1 h 264-ViPER|CtrlHD

Series Info

# of Seasons: 2
Country: US
Air Day: Monday
Air Time: 21:00
First Aired: 2011-09-26
Rating: TV-PG
Series Status: New Series
Runtime: 60 Minutes
Network: The CW
Classification: Scripted
TVDB Rating: 7.2
External Links:   

 Hart of Dixie (2011)

TV Series  –  60 min  –  tvComedy | tvDrama
7.7

Your rating:

   -/10
Ratings: 7.7/10 from 9,623 users
Reviews: 28 user | 3 critic

 

New Yorker and new doctor Zoe Hart accepts an offer from a stranger, Dr. Harley Wilkes, to work in his medical practice in Bluebell, Alabama. She arrives to find he has died and left half the practice to her in his will.

 

Creator:

Leila Gerstein

Stars:

Complete name : Hart.of.Dixie.S01E01.Pilot.720p.WEB-DL.DD5.1.H.264-CtrlHD.mkv
Format : Matroska
Format version : Version 2
File size : 1.35 GiB
Duration : 42mn 22s
Overall bit rate : 4 572 Kbps
Encoded date : UTC 2011-09-22 21:25:16
Writing application : mkvmerge v4.6.0 (‘Still Crazy After All These Years’) built on Mar 10 2011 02:50:32
Writing library : libebml v1.2.0 + libmatroska v1.1.0Video
ID : 1
Format : AVC
Format/Info : Advanced Video Codec
Format profile : High@L3.1
Format settings, CABAC : No
Format settings, ReFrames : 2 frames
Codec ID : V_MPEG4/ISO/AVC
Duration : 42mn 22s
Bit rate : 4 098 Kbps
Width : 1 280 pixels
Height : 720 pixels
Display aspect ratio : 16:9
Frame rate : 23.976 fps
Color space : YUV
Chroma subsampling : 4:2:0
Bit depth : 8 bits
Scan type : Progressive
Bits/(Pixel*Frame) : 0.185
Stream size : 1.21 GiB (90%)
Language : English
Default : Yes
Forced : No
Color primaries : BT.709-5, BT.1361, IEC 61966-2-4, SMPTE RP177
Transfer characteristics : BT.709-5, BT.1361
Matrix coefficients : BT.709-5, BT.1361, IEC 61966-2-4 709, SMPTE RP177

Audio
ID : 2
Format : AC-3
Format/Info : Audio Coding 3
Mode extension : CM (complete main)
Codec ID : A_AC3
Duration : 42mn 22s
Bit rate mode : Constant
Bit rate : 384 Kbps
Channel(s) : 6 channels
Channel positions : Front: L C R, Side: L R, LFE
Sampling rate : 48.0 KHz
Bit depth : 16 bits
Compression mode : Lossy
Stream size : 116 MiB (8%)
Title : English
Language : English
Default : Yes
Forced : No

File Name Size
Hart.of.Dixie.S01E11.Hell’s.Belles.720p.WEB DL.DD5.1.H.264 ViPER.mkv 1.38 GB
Hart.of.Dixie.S01E09.The.Pirate.&.the.Practice.720p.WEB.DL.DD5.1.H.264.ViPER.mkv 1.38 GB
Hart.of.Dixie.S01E02.Parades&Pariahs.720p.WEB DL.DD5.1.H.264 CtrlHD.mkv 1.37 GB
Hart.of.Dixie.S01E22.The.Big.Day.720p.WEB DL.DD5.1.H.264 CtrlHD.mkv 1.35 GB
Hart.of.Dixie.S01E01.Pilot.720p.WEB DL.DD5.1.H.264 CtrlHD.mkv 1.35 GB
Hart.of.Dixie.S01E12.Mistresses.&.Misunderstandings.720p.WEB DL.DD5.1.H.264 CtrlHD.mkv 1.35 GB
Hart.of.Dixie.S01E17.Heart.to.Hart.720p.WEB DL.DD5.1.H.264 CtrlHD.mkv 1.35 GB
Hart.of.Dixie.S01E07.The.Crush.&.the.Crossbow.720p.WEB DL.DD5.1.H.264 ViPER.mkv 1.34 GB
Hart.of.Dixie.S01E15.Snowflakes.&.Soulmates.720p.WEB DL.DD5.1.H.264 CtrlHD.mkv 1.34 GB
Hart.of.Dixie.S01E10.Hairdos.&.Holidays.720p.WEB DL.DD5.1.H.264 ViPER.mkv 1.33 GB
Hart.of.Dixie.S01E06.The.Undead.&.the.Unsaid.720p.WEB DL.DD5.1.H.264 ViPER.mkv 1.33 GB
Hart.of.Dixie.S01E19.Destiny.&.Denial.720p.WEB DL.DD5.1.H.264 CtrlHD.mkv 1.32 GB
Hart.of.Dixie.S01E14.Aliens.&.Aliases.720p.WEB DL.DD5.1.H.264 CtrlHD.mkv 1.31 GB
Hart.of.Dixie.S01E08.Homecoming.&.Coming.Home.720p.WEB DL.DD5.1.H.264 ViPER.mkv 1.31 GB
Hart.of.Dixie.S01E18.Bachelorettes.&.Bullets.720p.WEB DL.DD5.1.H.264 CtrlHD.mkv 1.30 GB
Hart.of.Dixie.S01E04.In.Havoc.In.Heat.720p.WEB DL.DD5.1.H.264 CtrlHD.mkv 1.30 GB
Hart.of.Dixie.S01E21.Disaster.Drills.&.Departures.720p.WEB DL.DD5.1.H.264 CtrlHD.mkv 1.28 GB
Hart.of.Dixie.S01E13.Sweetie.Pies.&.Sweaty.Palms.720p.WEB DL.DD5.1.H.264 CtrlHD.mkv 1.28 GB
Hart.of.Dixie.S01E05.Faith.&.Infidelity.720p.WEB DL.DD5.1.H.264 ViPER.mkv 1.28 GB
Hart.of.Dixie.S01E20.The.Race.&.The.Relationship.720p.WEB DL.DD5.1.H.264 CtrlHD.mkv 1.28 GB
Hart.of.Dixie.S01E16.Tributes.&.Triangles.720p.WEB DL.DD5.1.H.264 CtrlHD.mkv 1.27 GB
Hart.of.Dixie.S01E03.Gumbo Glory.720p.WEB DL.DD5.1.H.264 CtrlHD.mkv 1.26 GB

Screenshot:

Hart of Dixie S01 720p WEB-DL DD5 1 h 264-ViPER|CtrlHD

Sign up via clicking banner and a file link to creat a premium account.
Hart of Dixie S01 720p WEB-DL DD5 1 h 264-ViPER|CtrlHD
ExtMatrix Download Links

Hart.of.Dixie.S01E20.The.Race...The.Relationship.720p.WEB-DL.DD5.1.H.264-CtrlHD.rar
Hart.of.Dixie.S01E21.Disaster.Drills...Departures.720p.WEB-DL.DD5.1.H.264-CtrlHD.rar
Hart.of.Dixie.S01E22.The.Big.Day.720p.WEB-DL.DD5.1.H.264-CtrlHD.rar
Hart.of.Dixie.S01E19.Destiny...Denial.720p.WEB-DL.DD5.1.H.264-CtrlHD.rar
Hart.of.Dixie.S01E18.Bachelorettes...Bullets.720p.WEB-DL.DD5.1.H.264-CtrlHD.rar
Hart.of.Dixie.S01E17.Heart.to.Hart.720p.WEB-DL.DD5.1.H.264-CtrlHD.rar
Hart.of.Dixie.S01E15.Snowflakes...Soulmates.720p.WEB-DL.DD5.1.H.264-CtrlHD.rar
Hart.of.Dixie.S01E16.Tributes...Triangles.720p.WEB-DL.DD5.1.H.264-CtrlHD.rar
Hart.of.Dixie.S01E14.Aliens...Aliases.720p.WEB-DL.DD5.1.H.264-CtrlHD.rar
Hart.of.Dixie.S01E13.Sweetie.Pies...Sweaty.Palms.720p.WEB-DL.DD5.1.H.264-CtrlHD.rar
Hart.of.Dixie.S01E12.Mistresses...Misunderstandings.720p.WEB-DL.DD5.1.H.264-CtrlHD.rar
Hart.of.Dixie.S01E11.Hell.s.Belles.720p.WEB-DL.DD5.1.H.264-ViPER.rar
Hart.of.Dixie.S01E10.Hairdos...Holidays.720p.WEB-DL.DD5.1.H.264-ViPER.rar
Hart.of.Dixie.S01E09.The.Pirate...the.Practice.720p.WEB.DL.DD5.1.H.264.ViPER.rar
Hart.of.Dixie.S01E08.Homecoming...Coming.Home.720p.WEB-DL.DD5.1.H.264-ViPER.rar
Hart.of.Dixie.S01E07.The.Crush...the.Crossbow.720p.WEB-DL.DD5.1.H.264-ViPER.rar
Hart.of.Dixie.S01E06.The.Undead...the.Unsaid.720p.WEB-DL.DD5.1.H.264-ViPER.rar
Hart.of.Dixie.S01E05.Faith...Infidelity.720p.WEB-DL.DD5.1.H.264-ViPER.rar
Hart.of.Dixie.S01E04.In.Havoc.In.Heat.720p.WEB-DL.DD5.1.H.264-CtrlHD.rar
Hart.of.Dixie.S01E03.Gumbo_Glory.720p.WEB-DL.DD5.1.H.264-CtrlHD.rar
Hart.of.Dixie.S01E02.Parades.Pariahs.720p.WEB-DL.DD5.1.H.264-CtrlHD.rar
Hart.of.Dixie.S01E01.Pilot.720p.WEB-DL.DD5.1.H.264-CtrlHD.rar