Warning: Invalid argument supplied for foreach() in /home/wwwroot/crazyhdsource.com/wp-content/plugins/wpExtMatrixLink/wpExtMatrixLink.php on line 138



Useful link:

IMDB

TVRAGE

TVDB

MediaInfo:
General
Complete name : Halt.and.Catch.Fire.S01E01.1080p.WEB-DL.DD5.1.H.264.HKD.mkv
Format : Matroska
Format version : Version 4 / Version 2
File size : 1.71 GiB
Duration : 47mn 43s
Overall bit rate : 5 137 Kbps
Movie name : ripped by CrazyHDSource.com

Video
ID : 1
Format : AVC
Format/Info : Advanced Video Codec
Format profile : High@L4.0
Format settings, CABAC : Yes
Format settings, ReFrames : 4 frames
Codec ID : V_MPEG4/ISO/AVC
Duration : 47mn 43s
Bit rate : 4 651 Kbps
Width : 1 920 pixels
Height : 1 080 pixels
Display aspect ratio : 16:9
Frame rate mode : Constant
Frame rate : 23.976 fps
Color space : YUV
Chroma subsampling : 4:2:0
Bit depth : 8 bits
Scan type : Progressive
Bits/(Pixel*Frame) : 0.094
Stream size : 1.55 GiB (91%)
Title : ripped by CrazyHDSource.com
Language : English
Default : Yes
Forced : No
Color primaries : BT.709
Transfer characteristics : BT.709
Matrix coefficients : BT.709

Audio
ID : 2
Format : AC-3
Format/Info : Audio Coding 3
Mode extension : CM (complete main)
Format settings, Endianness : Big
Codec ID : A_AC3
Duration : 47mn 43s
Bit rate mode : Constant
Bit rate : 384 Kbps
Channel(s) : 6 channels
Channel positions : Front: L C R, Side: L R, LFE
Sampling rate : 48.0 KHz
Bit depth : 16 bits
Compression mode : Lossy
Stream size : 131 MiB (7%)
Language : English
Default : Yes
Forced : No

Text
ID : 3
Format : UTF-8
Codec ID : S_TEXT/UTF8
Codec ID/Info : UTF-8 Plain Text
Language : English
Default : No
Forced : No

Halt.and.Catch.Fire.S01E01.IO.1080p.WEB DL.DD5.1.H.264 HKD.mkv 1.71 GB
Halt.and.Catch.Fire.S01E02.FUD.1080p.WEB DL.DD5.1.H.264 HKD.mkv 1.59 GB
Halt.and.Catch.Fire.S01E03.High.Plains.Hardware.1080p.WEB DL.DD5.1.H.264 HKD.mkv 1.56 GB
Halt.and.Catch.Fire.S01E04.Close.to.the.Metal.1080p.WEB DL.DD5.1.H.264 HKD.mkv 1.61 GB
Halt.and.Catch.Fire.S01E05.Adventure.1080p.WEB DL.DD5.1.H.264 HKD.mkv 1.57 GB
Halt.and.Catch.Fire.S01E06.Landfall.1080p.WEB DL.DD5.1.H.264 HKD.mkv 1.55 GB
Halt.and.Catch.Fire.S01E07.Giant.1080p.WEB DL.DD5.1.H.264 HKD.mkv 1.56 GB
Halt.and.Catch.Fire.S01E08.The.214s.1080p.WEB DL.DD5.1.H.264 HKD.mkv 1.55 GB
Halt.and.Catch.Fire.S01E09.Up.Helly.Aa.1080p.WEB DL.DD5.1.H.264 HKD.mkv 1.60 GB
Halt.and.Catch.Fire.S01E10.1984.1080p.WEB DL.DD5.1.H.264 HKD.mkv 1.53 GB

Screenshot:

Sign up via clicking banner and a file link to creat a premium account.Then Get the access to protected links.

ExtMatrix Download Links

Click Here for downloading links Halt and Catch Fire S01 Complete Season 1080p WEB-DL DD5 1 H 264 HKD