External Links:

General
Complete name : Orphan Black S01E08 720p BluRay x264 DTS-DAA.mkv
Format : Matroska
Format version : Version 4 / Version 2
File size : 2.19 GiB
Duration : 43mn 20s
Overall bit rate : 7 219 Kbps
Encoded date : UTC 2013-07-13 10:18:29
Writing application : mkvmerge v6.3.0 (‘You can’t stop me!’) built on Jun 28 2013 20:09:41
Writing library : libebml v1.3.0 + libmatroska v1.4.0

Video
ID : 1
Format : AVC
Format/Info : Advanced Video Codec
Format profile : High@L4.1
Format settings, CABAC : Yes
Format settings, ReFrames : 5 frames
Codec ID : V_MPEG4/ISO/AVC
Duration : 43mn 20s
Bit rate : 5 710 Kbps
Width : 1 280 pixels
Height : 720 pixels
Display aspect ratio : 16:9
Frame rate mode : Constant
Frame rate : 23.976 fps
Color space : YUV
Chroma subsampling : 4:2:0
Bit depth : 8 bits
Scan type : Progressive
Bits/(Pixel*Frame) : 0.258
Stream size : 1.69 GiB (77%)
Writing library : x264 core 135 r2345kMod f0c1c53
Encoding settings : cabac=1 / ref=5 / deblock=1:0:0 / analyse=0x3:0x133 / me=umh / subme=7 /

Audio
ID : 2
Format : DTS
Format/Info : Digital Theater Systems
Mode : 16
Format settings, Endianness : Big
Codec ID : A_DTS
Duration : 43mn 20s
Bit rate mode : Constant
Bit rate : 1 509 Kbps
Channel(s) : 6 channels
Channel positions : Front: L C R, Side: L R, LFE
Sampling rate : 48.0 KHz
Bit depth : 24 bits
Compression mode : Lossy
Stream size : 468 MiB (21%)
Language : English
Default : Yes
Forced : No

Text
ID : 3
Format : UTF-8
Codec ID : S_TEXT/UTF8
Codec ID/Info : UTF-8 Plain Text
Language : English
Default : Yes
Forced : No

Menu
00:00:00.000 : en:00:00:00.000
00:04:13.879 : en:00:04:13.879
00:09:39.579 : en:00:09:39.579
00:17:11.572 : en:00:17:11.572
00:24:05.527 : en:00:24:05.527
00:30:45.343 : en:00:30:45.343
00:38:11.915 : en:00:38:11.915
00:42:32.216 : en:00:42:32.216

Screenshot:

Sign up via clicking banner and a file link to creat a premium account.

ExtMatrix Download Links

Orphan.Black.S01E01.1080p.WEB-DL.AAC2.0.H.264-HKD.part4.rar
Orphan.Black.S01E01.1080p.WEB-DL.AAC2.0.H.264-HKD.part2.rar
Orphan.Black.S01E01.1080p.WEB-DL.AAC2.0.H.264-HKD.part3.rar
Orphan.Black.S01E01.1080p.WEB-DL.AAC2.0.H.264-HKD.part1.rar
Orphan.Black.S01E02.1080p.WEB-DL.AAC2.0.H.264-HKD.part4.rar
Orphan.Black.S01E02.1080p.WEB-DL.AAC2.0.H.264-HKD.part3.rar
Orphan.Black.S01E02.1080p.WEB-DL.AAC2.0.H.264-HKD.part2.rar
Orphan.Black.S01E02.1080p.WEB-DL.AAC2.0.H.264-HKD.part1.rar
Orphan.Black.S01E06.1080p.WEB-DL.AAC2.0.H.264-HKD.part1.rar
Orphan.Black.S01E06.1080p.WEB-DL.AAC2.0.H.264-HKD.part2.rar
Orphan.Black.S01E06.1080p.WEB-DL.AAC2.0.H.264-HKD.part3.rar
Orphan.Black.S01E06.1080p.WEB-DL.AAC2.0.H.264-HKD.part4.rar
Orphan.Black.S01E10.1080p.WEB-DL.AAC2.0.H.264-HKD.part1.rar
Orphan.Black.S01E10.1080p.WEB-DL.AAC2.0.H.264-HKD.part2.rar
Orphan.Black.S01E10.1080p.WEB-DL.AAC2.0.H.264-HKD.part3.rar
Orphan.Black.S01E10.1080p.WEB-DL.AAC2.0.H.264-HKD.part4.rar
Orphan.Black.S01E07.Parts.Developed.In.An.Unusual.Manner.1080p.WEB-DL.AAC.2.0.H.264-ECI.mkv
Orphan.Black.S01E08.Entangled.Bank.1080p.WEB-DL.AAC.2.0.H.264-ECI.mkv
Orphan.Black.S01E09.Unconscious.Selection.1080p.WEB-DL.AAC.2.0.H.264-ECI.mkv
Orphan.Black.S01E01-720p.BluRay.x264.DTS-DAA.mkv
Orphan.Black.S01E02-720p.BluRay.x264.DTS-DAA.mkv
Orphan.Black.S01E03-720p.BluRay.x264.DTS-DAA.mkv
Orphan.Black.S01E04-720p.BluRay.x264.DTS-DAA.mkv
Orphan.Black.S01E05-720p.BluRay.x264.DTS-DAA.mkv
Orphan.Black.S01E06-720p.BluRay.x264.DTS-DAA.mkv
Orphan.Black.S01E07-720p.BluRay.x264.DTS-DAA.mkv
Orphan.Black.S01E08-720p.BluRay.x264.DTS-DAA.mkv
Orphan.Black.S01E09-720p.BluRay.x264.DTS-DAA.mkv
Orphan.Black.S01E10-720p.BluRay.x264.DTS-DAA.mkv
Orphan.Black.S01E03.Variation.Under.Nature.1080p.WEB-DL.AAC.2.0.H.264-ECI.mkv
Orphan.Black.S01E04.Effects.Of.External.Conditions.1080p.WEB-DL.AAC.2.0.H.264-ECI.mkv
Orphan.Black.S01E05.Conditions.of.Existence.1080p.WEB-DL.AAC.2.0.H.264-ECI.mkv