Supernatural S07 720p BluRay DD5.1 x264-MMI

Series Info

# of Seasons: 8
Country: US
Air Day: Friday
Air Time: 9:00 PM
First Aired: 2005-09-13
Rating: TV-14
Series Status: Returning Series
Runtime: 60 Minutes
Network: The CW
Classification: Scripted
TVDB Rating: 8.8
External Links:

Supernatural (2005)

TV Series – TV_14 60 min – tvDrama | tvFantasy | tvHorror
8.6

Your rating:

-/10
Ratings: 8.6/10 from 65,168 users
Reviews: 371 user | 71 critic

Two brothers search for their missing father, the man who trained them to be warriors against supernatural evil.

 

 

General
Complete name : Supernatural.S07E11.Adventures.in.Babysitting.720p.BluRay.DD5.1.×264-MMI.mkv
Format : Matroska
Format version : Version 2
File size : 1.75 GiB
Duration : 41mn 56s
Overall bit rate : 5 984 Kbps
Encoded date : UTC 2012-10-09 14:34:11
Writing application : mkvmerge v5.8.0 (‘No Sleep / Pillow’) built on Sep 2 2012 15:37:04
Writing library : libebml v1.2.3 + libmatroska v1.3.0

Video
ID : 1
Format : AVC
Format/Info : Advanced Video Codec
Format profile : High@L4.0
Format settings, CABAC : Yes
Format settings, ReFrames : 9 frames
Codec ID : V_MPEG4/ISO/AVC
Duration : 41mn 56s
Bit rate : 5 225 Kbps
Width : 1 280 pixels
Height : 720 pixels
Display aspect ratio : 16:9
Frame rate : 23.976 fps
Color space : YUV
Chroma subsampling : 4:2:0
Bit depth : 8 bits
Scan type : Progressive
Bits/(Pixel*Frame) : 0.236
Stream size : 1.53 GiB (87%)
Writing library : x264 core 125 r2200 999b753
Encoding settings : cabac=1 / ref=9 / deblock=1:-2:-2 / analyse=0x3:0x133 / me=umh / subme=10 / psy=1 / psy_rd=1.00:0.00 / mixed_ref=1 / me_range=32 / chroma_me=1 / trellis=2 / 8x8dct=1 / cqm=0 / deadzone=21,11 / fast_pskip=0 / chroma_qp_offset=-2 / threads=6 / lookahead_threads=1 / sliced_threads=0 / nr=0 / decimate=0 / interlaced=0 / bluray_compat=0 / constrained_intra=0 / bframes=8 / b_pyramid=2 / b_adapt=2 / b_bias=0 / direct=3 / weightb=1 / open_gop=0 / weightp=2 / keyint=240 / keyint_min=23 / scenecut=40 / intra_refresh=0 / rc=crf / mbtree=0 / crf=17.2 / qcomp=0.60 / qpmin=0 / qpmax=69 / qpstep=4 / ip_ratio=1.40 / pb_ratio=1.30 / aq=1:0.80
Language : English
Default : Yes
Forced : No

Audio
ID : 2
Format : AC-3
Format/Info : Audio Coding 3
Mode extension : CM (complete main)
Format settings, Endianness : Big
Codec ID : A_AC3
Duration : 41mn 56s
Bit rate mode : Constant
Bit rate : 640 Kbps
Channel(s) : 6 channels
Channel positions : Front: L C R, Side: L R, LFE
Sampling rate : 48.0 KHz
Bit depth : 16 bits
Compression mode : Lossy
Stream size : 192 MiB (11%)
Default : Yes
Forced : No

 

File Name Size
Supernatural.S07E01.Meet.the.New.Boss.720p.BluRay.DD5.1.x264-MMI.mkv 2.18 GB
Supernatural.S07E02.Hello.Cruel.World.720p.BluRay.DD5.1.x264-MMI.mkv 2.18 GB
Supernatural.S07E03.The.Girl.Next.Door.720p.BluRay.DD5.1.x264-MMI.mkv 2.18 GB
Supernatural.S07E04.Defending.Your.Life.720p.BluRay.DD5.1.x264-MMI.mkv 2.18 GB
Supernatural.S07E05.Shut.Up.Dr.Phil.720p.BluRay.DD5.1.x264-MMI.mkv 2.18 GB
Supernatural.S07E06.Slash.Fiction.720p.BluRay.DD5.1.x264-MMI.mkv 2.18 GB
Supernatural.S07E07.The.Mentalists.720p.BluRay.DD5.1.x264-MMI.mkv 2.18 GB
Supernatural.S07E08.Season.Seven.Time.for.a.Wedding.720p.BluRay.DD5.1.x264-MMI.mkv 2.18 GB
Supernatural.S07E08.Season.Seven.Time.for.a.Wedding.720p.BluRay.DD5.1.x264-MMI.mkv 2.18 GB
Supernatural.S07E10.Deaths.Door.720p.BluRay.DD5.1.x264-MMI.mkv 2.18 GB
Supernatural.S07E11.Adventures.in.Babysitting.720p.BluRay.DD5.1.x264-MMI.mkv 2.18 GB
Supernatural.S07E12.Time.after.Time.720p.BluRay.DD5.1.x264-MMI.mkv 2.18 GB
Supernatural.S07E13.The.Slice.Girls.720p.BluRay.DD5.1.x264-MMI.mkv 2.18 GB
Supernatural.S07E14.Plucky.Pennywhistles.Magic.Menagerie.720p.BluRay.DD5.1.x264-MMI.mkv 2.18 GB
Supernatural.S07E15.Repo.Man.720p.BluRay.DD5.1.x264-MMI.mkv 2.18 GB
Supernatural.S07E16.Out.With.the.Old.720p.BluRay.DD5.1.x264-MMI.mkv 2.18 GB
Supernatural.S07E17.The.Born.Again.Identity.720p.BluRay.DD5.1.x264-MMI.mkv 2.18 GB
Supernatural.S07E18.Party.On.Garth.720p.BluRay.DD5.1.x264-MMI.mkv 2.18 GB
Supernatural.S07E19.Of.Grave.Importance.720p.BluRay.DD5.1.x264-MMI.mkv 2.18 GB
Supernatural.S07E20.The.Girl.with.the.Dungeons.and.Dragons.Tatoo.720p.BluRay.DD5.1.x264-MMI.mkv 2.18 GB
Supernatural.S07E21.Reading.is.Fundamental.720p.BluRay.DD5.1.x264-MMI.mkv 2.18 GB
Supernatural.S07E22.There.Will.Be.Blood.720p.BluRay.DD5.1.x264-MMI.mkv 2.18 GB
Supernatural.S07E23.Survival.of.the.Fittest.720p.BluRay.DD5.1.x264-MMI.mkv 2.18 GB

 

Screenshot:
Supernatural S07 720p BluRay DD5.1 x264-MMI

Sign up via clicking banner and a file link to creat a premium account.
Supernatural S07 720p BluRay DD5.1 x264-MMI
ExtMatrix Download Links

Supernatural.S07E01.Meet.the.New.Boss.720p.BluRay.DD5.1.x264-MMI.ra
Supernatural.S07E02.Hello.Cruel.World.720p.BluRay.DD5.1.x264-MMI.ra
Supernatural.S07E03.The.Girl.Next.Door.720p.BluRay.DD5.1.x264-MMI.ra
Supernatural.S07E04.Defending.Your.Life.720p.BluRay.DD5.1.x264-MMI.ra
Supernatural.S07E05.Shut.Up.Dr.Phil.720p.BluRay.DD5.1.x264-MMI.ra
Supernatural.S07E06.Slash.Fiction.720p.BluRay.DD5.1.x264-MMI.ra
Supernatural.S07E07.The.Mentalists.720p.BluRay.DD5.1.x264-MMI.ra
Supernatural.S07E08.Season.Seven.Time.for.a.Wedding.720p.BluRay.DD5.1.x264-MMI.ra
Supernatural.S07E09.How.to.Win.Friends.and.Influence.Monsters.720p.BluRay.DD5.1.x264-MMI.ra
Supernatural.S07E10.Deaths.Door.720p.BluRay.DD5.1.x264-MMI.part1.ra
Supernatural.S07E10.Deaths.Door.720p.BluRay.DD5.1.x264-MMI.part2.ra
Supernatural.S07E11.Adventures.in.Babysitting.720p.BluRay.DD5.1.x264-MMI.ra
Supernatural.S07E12.Time.after.Time.720p.BluRay.DD5.1.x264-MMI.ra
Supernatural.S07E13.The.Slice.Girls.720p.BluRay.DD5.1.x264-MMI.ra
Supernatural.S07E14.Plucky.Pennywhistles.Magic.Menagerie.720p.BluRay.DD5.1.x264-MMI.ra
Supernatural.S07E15.Repo.Man.720p.BluRay.DD5.1.x264-MMI.ra
Supernatural.S07E16.Out.With.the.Old.720p.BluRay.DD5.1.x264-MMI.ra
Supernatural.S07E17.The.Born.Again.Identity.720p.BluRay.DD5.1.x264-MMI.ra
Supernatural.S07E18.Party.On.Garth.720p.BluRay.DD5.1.x264-MMI.ra
Supernatural.S07E19.Of.Grave.Importance.720p.BluRay.DD5.1.x264-MMI.ra
Supernatural.S07E20.The.Girl.with.the.Dungeons.and.Dragons.Tatoo.720p.BluRay.DD5.1.x264-MMI.part1.ra
Supernatural.S07E20.The.Girl.with.the.Dungeons.and.Dragons.Tatoo.720p.BluRay.DD5.1.x264-MMI.part2.ra
Supernatural.S07E21.Reading.is.Fundamental.720p.BluRay.DD5.1.x264-MMI.part1.ra
Supernatural.S07E21.Reading.is.Fundamental.720p.BluRay.DD5.1.x264-MMI.part2.ra
Supernatural.S07E22.There.Will.Be.Blood.720p.BluRay.DD5.1.x264-MMI.ra
Supernatural.S07E23.Survival.of.the.Fittest.720p.BluRay.DD5.1.x264-MMI.ra