Useful link:

MediaInfo:
General
Complete name : The.Calling.2014.720p.WEB-DL.DD5.1.H264-RARBG.mkv
Format : Matroska
Format version : Version 4 / Version 2
File size : 3.47 GiB
Duration : 1h 48mn
Overall bit rate : 4 594 Kbps

Video
ID : 1
Format : AVC
Format/Info : Advanced Video Codec
Format profile : Main@L3.1
Format settings, CABAC : No
Format settings, ReFrames : 2 frames
Codec ID : V_MPEG4/ISO/AVC
Duration : 1h 48mn
Bit rate : 4 119 Kbps
Width : 1 280 pixels
Height : 530 pixels
Display aspect ratio : 2.40:1
Frame rate mode : Constant
Frame rate : 23.976 fps
Color space : YUV
Chroma subsampling : 4:2:0
Bit depth : 8 bits
Scan type : Progressive
Bits/(Pixel*Frame) : 0.253
Stream size : 3.11 GiB (90%)
Title : The.Calling.2014.720p.WEB-DL.DD5.1.H264-RARBG
Default : Yes
Forced : No
Color primaries : BT.709
Transfer characteristics : BT.709
Matrix coefficients : BT.709

Audio
ID : 2
Format : AC-3
Format/Info : Audio Coding 3
Mode extension : CM (complete main)
Format settings, Endianness : Big
Codec ID : A_AC3
Duration : 1h 48mn
Bit rate mode : Constant
Bit rate : 384 Kbps
Channel(s) : 6 channels
Channel positions : Front: L C R, Side: L R, LFE
Sampling rate : 48.0 KHz
Bit depth : 16 bits
Compression mode : Lossy
Stream size : 297 MiB (8%)
Title : The.Calling.2014.720p.WEB-DL.DD5.1.H264-RARBG
Language : English
Default : Yes
Forced : No

Text
ID : 3
Format : UTF-8
Codec ID : S_TEXT/UTF8
Codec ID/Info : UTF-8 Plain Text
Default : Yes
Forced : No

Menu
00:00:00.000 : en:1
00:07:02.000 : en:2
00:13:47.000 : en:3
00:21:38.000 : en:4
00:28:15.000 : en:5
00:33:43.000 : en:6
00:38:54.000 : en:7
00:43:44.000 : en:8
00:51:38.000 : en:9
00:57:01.000 : en:10
01:01:17.000 : en:11
01:09:24.000 : en:12
01:16:15.000 : en:13
01:23:03.000 : en:14
01:29:44.000 : en:15
01:38:09.000 : en:16

Screenshot:

Sign up via clicking banner and a file link to creat a premium account.Then Get the access to protected links.

ExtMatrix Download Links

The.Calling.2014.720p.WEB-DL.DD5.1.H264-RARBG.mkv