External Links:

General
Complete name : Hostages.S01E01.Pilot.for.Air.1080p.WEB-DL.DD5.1.H.264-NTb.mkv
Format : Matroska
Format version : Version 2
File size : 1.62 GiB
Duration : 43mn 7s
Overall bit rate : 5 388 Kbps

Video
ID : 1
Format : AVC
Format/Info : Advanced Video Codec
Format profile : High@L4.0
Format settings, CABAC : Yes
Format settings, ReFrames : 4 frames
Codec ID : V_MPEG4/ISO/AVC
Duration : 43mn 7s
Bit rate : 4 897 Kbps
Width : 1 920 pixels
Height : 1 080 pixels
Display aspect ratio : 16:9
Frame rate mode : Constant
Frame rate : 23.976 fps
Color space : YUV
Chroma subsampling : 4:2:0
Bit depth : 8 bits
Scan type : Progressive
Bits/(Pixel*Frame) : 0.098
Stream size : 1.48 GiB (91%)
Language : English
Default : Yes
Forced : No
Color primaries : BT.709
Transfer characteristics : BT.709
Matrix coefficients : BT.709

Audio
ID : 2
Format : AC-3
Format/Info : Audio Coding 3
Mode extension : CM (complete main)
Format settings, Endianness : Big
Codec ID : A_AC3
Duration : 43mn 7s
Bit rate mode : Constant
Bit rate : 384 Kbps
Channel(s) : 6 channels
Channel positions : Front: L C R, Side: L R, LFE
Sampling rate : 48.0 KHz
Bit depth : 16 bits
Compression mode : Lossy
Stream size : 118 MiB (7%)
Language : English
Default : Yes
Forced : No

Text
ID : 3
Format : UTF-8
Codec ID : S_TEXT/UTF8
Codec ID/Info : UTF-8 Plain Text
Title : CC
Language : English
Default : No
Forced : No

Hostages.S01.On.the.Set.1080p.WEB-DL.AAC2.0.H.264-HKD.mkv 44.20 MB
Hostages.S01.Pilot.Promotion.1080p.WEB-DL.AAC2.0.H.264-HKD.mkv 45.46 MB
Screenshot:

Sign up via clicking banner and a file link to creat a premium account.Then Get the access to protected links.

ExtMatrix Download Links

Hostages.S01E01.Pilot.for.Air.1080p.WEB-DL.DD5.1.H.264-NTb.mkv
Hostages.S01E03.Power.of.Persuasion.1080p.WEB-DL.DD5.1.H.264-NTb.mkv
Hostages.S01E04.2.45.PM.1080p.WEB-DL.DD5.1.H.264-NTb.mkv
Hostages.S01E05.Truth.and.Consequences.1080p.WEB-DL.DD5.1.H.264-NTb.mkv
Hostages.S01E06.Sister.s.Keeper.1080p.WEB-DL.DD5.1.H.264-NTb.mkv
Hostages.S01E07.Hail.Mary.1080p.WEB-DL.DD5.1.H.264-NTb.mkv
Hostages.S01E09.Loose.Ends.1080p.WEB-DL.DD5.1.H.264-NTb.mkv
Hostages.S01E13.Fight.or.Flight.1080p.WEB-DL.DD5.1.H.264-NTb.mkv

Click Here for downloading links Hostages S01E14 S01E15 1080p WEB-DL DD5 1 H 264 HKD