External Links:

General
General
Complete name : How.I.Met.Your.Mother.S09E02.Coming.Back.1080p.WEB-DL.DD5.1.H.264-CtrlHD.mkv
Format : Matroska
Format version : Version 2
File size : 849 MiB
Duration : 20mn 55s
Overall bit rate : 5 670 Kbps

Video
ID : 1
Format : AVC
Format/Info : Advanced Video Codec
Format profile : High@L4.0
Format settings, CABAC : Yes
Format settings, ReFrames : 4 frames
Codec ID : V_MPEG4/ISO/AVC
Duration : 20mn 55s
Bit rate : 5 173 Kbps
Width : 1 912 pixels
Height : 1 072 pixels
Display aspect ratio : 16:9
Frame rate mode : Constant
Frame rate : 23.976 fps
Color space : YUV
Chroma subsampling : 4:2:0
Bit depth : 8 bits
Scan type : Progressive
Bits/(Pixel*Frame) : 0.105
Stream size : 774 MiB (91%)
Language : English
Default : Yes
Forced : No
Color primaries : BT.709
Transfer characteristics : BT.709
Matrix coefficients : BT.709

Audio
ID : 2
Format : AC-3
Format/Info : Audio Coding 3
Mode extension : CM (complete main)
Format settings, Endianness : Big
Codec ID : A_AC3
Duration : 20mn 55s
Bit rate mode : Constant
Bit rate : 384 Kbps
Channel(s) : 6 channels
Channel positions : Front: L C R, Side: L R, LFE
Sampling rate : 48.0 KHz
Bit depth : 16 bits
Compression mode : Lossy
Stream size : 57.5 MiB (7%)
Language : English
Default : Yes
Forced : No

Text
ID : 3
Format : UTF-8
Codec ID : S_TEXT/UTF8
Codec ID/Info : UTF-8 Plain Text
Title : CC
Language : English
Default : No
Forced : No

How.I.Met.Your.Mother.S09.Season.9.Sneak.Peak.1080p.WEB-DL.AAC2.0.H.264.HKD.mkv 48.37 MB
Screenshot:

Sign up via clicking banner and a file link to creat a premium account.Then Get the access to protected links.

ExtMatrix Download Links

How.I.Met.Your.Mother.S09.Season.9.Sneak.Peak.1080p.WEB-DL.AAC2.0.H.264.HKD.mkv
How.I.Met.Your.Mother.S09E01.The.Locket.720p.WEB-DL.DD5.1.H.264-CtrlHD.mkv
How.I.Met.Your.Mother.S09E02.Coming.Back.720p.WEB-DL.DD5.1.H.264-CtrlHD.mkv
How.I.Met.Your.Mother.S09E01.The.Locket.1080p.WEB-DL.DD5.1.H.264-CtrlHD.mkv
How.I.Met.Your.Mother.S09E02.Coming.Back.1080p.WEB-DL.DD5.1.H.264-CtrlHD.mkv
How.I.Met.Your.Mother.S09E03.Last.Time.in.New.York.720p.WEB-DL.DD5.1.H.264-CtrlHD.mkv
How.I.Met.Your.Mother.S09E03.Last.Time.in.New.York.1080p.WEB-DL.DD5.1.H.264-CtrlHD.mkv
How.I.Met.Your.Mother.S09E04.The.Broken.Code.720p.WEB-DL.DD5.1.H.264-CtrlHD.mkv
How.I.Met.Your.Mother.S09E04.The.Broken.Code.1080p.WEB-DL.DD5.1.H.264-CtrlHD.mkv
How.I.Met.Your.Mother.S09E05.The.Poker.Game.720p.WEB-DL.DD5.1.H.264-BS.mkv
How.I.Met.Your.Mother.S09E05.The.Poker.Game.1080p.WEB-DL.DD5.1.H.264-BS.mkv
How.I.Met.Your.Mother.S09E06.Knight.Vision.720p.WEB-DL.DD5.1.H.264-BS.mkv
How.I.Met.Your.Mother.S09E06.Knight.Vision.1080p.WEB-DL.DD5.1.H.264-BS.mkv
How.I.Met.Your.Mother.S09E07.No.Questions.Asked.720p.WEB-DL.DD5.1.H.264-BS.mkv
How.I.Met.Your.Mother.S09E07.No.Questions.Asked.1080p.WEB-DL.DD5.1.H.264-BS.mkv
How.I.Met.Your.Mother.S09E08.The.Lighthouse.720p.WEB-DL.DD5.1.H.264-CtrlHD.mkv
How.I.Met.Your.Mother.S09E08.The.Lighthouse.1080p.WEB-DL.DD5.1.H.264-CtrlHD.mkv
How.I.Met.Your.Mother.S09E09.Platonish.720p.WEB-DL.DD5.1.H.264-CtrlHD.mkv
How.I.Met.Your.Mother.S09E09.Platonish.1080p.WEB-DL.DD5.1.H.264-CtrlHD.mkv
How.I.Met.Your.Mother.S09E10.Mom.and.Dad.720p.WEB-DL.DD5.1.H.264-CtrlHD.mkv
How.I.Met.Your.Mother.S09E10.Mom.and.Dad.1080p.WEB-DL.DD5.1.H.264-CtrlHD.mkv
How.I.Met.Your.Mother.S09E11.Bedtime.Stories.720p.WEB-DL.DD5.1.H.264-CtrlHD.mkv
How.I.Met.Your.Mother.S09E11.Bedtime.Stories.1080p.WEB-DL.DD5.1.H.264-CtrlHD.mkv
How.I.Met.Your.Mother.S09E12.The.Rehearsal.Dinner.1080p.WEB-DL.DD5.1.H.264-CtrlHD.mkv
How.I.Met.Your.Mother.S09E12.The.Rehearsal.Dinner.720p.WEB-DL.DD5.1.H.264-CtrlHD.mkv
How.I.Met.Your.Mother.S09E13.Bass.Player.Wanted.1080p.WEB-DL.DD5.1.H.264-CtrlHD.mkv
How.I.Met.Your.Mother.S09E13.Bass.Player.Wanted.720p.WEB-DL.DD5.1.H.264-CtrlHD.mkv
How.I.Met.Your.Mother.S09E14.Slapsgiving.3.Slappointment.in.Slapmarra.720p.WEB-DL.DD5.1.H.264-CtrlHD.mkv
How.I.Met.Your.Mother.S09E14.Slapsgiving.3.Slappointment.in.Slapmarra.1080p.WEB-DL.DD5.1.H.264-CtrlHD.mkv