External Links:

General
Complete name : Human.Trafficking.Part.2.720p.WEB-DL.DD5.1.H.264-CtrlHD.mkv
Format : Matroska
Format version : Version 2
File size : 2.73 GiB
Duration : 1h 28mn
Overall bit rate : 4 434 Kbps

Video
ID : 1
Format : AVC
Format/Info : Advanced Video Codec
Format profile : High@L3.1
Format settings, CABAC : No
Format settings, ReFrames : 2 frames
Codec ID : V_MPEG4/ISO/AVC
Duration : 1h 28mn
Bit rate : 3 961 Kbps
Width : 1 280 pixels
Height : 720 pixels
Display aspect ratio : 16:9
Frame rate mode : Constant
Frame rate : 23.976 fps
Color space : YUV
Chroma subsampling : 4:2:0
Bit depth : 8 bits
Scan type : Progressive
Bits/(Pixel*Frame) : 0.179
Stream size : 2.44 GiB (89%)
Language : English
Default : Yes
Forced : No
Color primaries : BT.709
Transfer characteristics : BT.709
Matrix coefficients : BT.709

Audio
ID : 2
Format : AC-3
Format/Info : Audio Coding 3
Mode extension : CM (complete main)
Format settings, Endianness : Big
Codec ID : A_AC3
Duration : 1h 28mn
Bit rate mode : Constant
Bit rate : 384 Kbps
Channel(s) : 6 channels
Channel positions : Front: L C R, Side: L R, LFE
Sampling rate : 48.0 KHz
Bit depth : 16 bits
Compression mode : Lossy
Stream size : 242 MiB (9%)
Title : English
Language : English
Default : Yes
Forced : No

File Name Size
Human.Trafficking.Part.1.720p.WEB DL.DD5.1.H.264 CtrlHD.mkv 2.92 GB
Human.Trafficking.Part.2.720p.WEB DL.DD5.1.H.264 CtrlHD.mkv 2.73 GB

Screenshot:

Sign up via clicking banner and a file link to creat a premium account.Then Get the access to protected links.

ExtMatrix Download Links

Human.Trafficking.Part.1.720p.WEB-DL.DD5.1.H.264-CtrlHD.mkv

Click Here for downloading links Human Trafficking 2 Parts 720p WEB-DL DD5.1 H.264 CtrlHD