Series Info
# of Seasons: 5
Country: US
Air Day: Sunday
Air Time: 10:00 PM
First Aired: 2008-06-01
Rating: TV-14
Series Status: Canceled/Ended
Runtime: 60 Minutes
Network: USA Network
Classification: Scripted
TVDB Rating: 8.0
External Links:

In Plain Sight (2008–2012)

TV Series – – tvCrime | tvDrama | tvMystery
6.9

Your rating:

-/10
Ratings: 6.9/10 from 4,347 users
Reviews: 30 user | 14 critic

 

U.S. Marshall Mary Shannon must hunt down witnesses for federal cases in the witness protection program while also raising a rather dysfunctional family and her own personal life.

 

Creator:

David Maples

Stars:

Mary McCormack, Frederick Weller, Paul Ben-Victor |
General
Complete name :In.Plain.Sight.S05E03.1080p.WEB-DL.DD5.1.H.264-POD.mkv
Format : Matroska
Format version : Version 2
File size : 1.63 GiB
Duration : 42mn 58s
Overall bit rate : 5 436 Kbps
Writing application : mkvmerge v4.0.0 (‘The Stars were mine’) сборка от Jun 5 2010 17:44:09
Writing library : libebml v1.0.0 + libmatroska v1.0.0

Video
ID : 1
Format : AVC
Format/Info : Advanced Video Codec
Format profile : High@L4.0
Format settings, CABAC : Yes
Format settings, ReFrames : 4 frames
Codec ID : V_MPEG4/ISO/AVC
Duration : 42mn 58s
Bit rate : 4 943 Kbps
Width : 1 920 pixels
Height : 1 080 pixels
Display aspect ratio : 16:9
Frame rate mode : Constant
Frame rate : 23.976 fps
Color space : YUV
Chroma subsampling : 4:2:0
Bit depth : 8 bits
Scan type : Progressive
Bits/(Pixel*Frame) : 0.099
Stream size : 1.48 GiB (91%)
Language : English
Default : Yes
Forced : No
Color primaries : BT.709
Transfer characteristics : BT.709
Matrix coefficients : BT.709

Audio
ID : 2
Format : AC-3
Format/Info : Audio Coding 3
Mode extension : CM (complete main)
Format settings, Endianness : Big
Codec ID : A_AC3
Duration : 42mn 58s
Bit rate mode : Constant
Bit rate : 384 Kbps
Channel(s) : 6 channels
Channel positions : Front: L C R, Side: L R, LFE
Sampling rate : 48.0 KHz
Bit depth : 16 bits
Compression mode : Lossy
Stream size : 118 MiB (7%)
Language : English
Default : Yes
Forced : No

In.Plain.Sight.S05E01.1080p.WEB DL.DD5.1.H.264 POD.mkv    1.64 GB
In.Plain.Sight.S05E02.1080p.WEB DL.DD5.1.H.264 POD.mkv    1.73 GB
In.Plain.Sight.S05E03.1080p.WEB DL.DD5.1.H.264 POD.mkv    1.63 GB
In.Plain.Sight.S05E04.1080p.WEB DL.DD5.1.H.264 POD.mkv    1.65 GB
In.Plain.Sight.S05E05.1080p.WEB DL.DD5.1.H.264 POD.mkv    1.55 GB
In.Plain.Sight.S05E06.1080p.WEB DL.DD5.1.H.264 POD.mkv    1.49 GB
In.Plain.Sight.S05E07.1080p.WEB DL.DD5.1.H.264 POD.mkv    1.59 GB
In.Plain.Sight.S05E08.1080p.WEB DL.DD5.1.H.264 POD.mkv    1.59 GB

Screenshot:

Sign up via clicking banner and a file link to creat a premium account.

ExtMatrix Download Links

In.Plain.Sight.S05E01.1080p.WEB-DL.DD5.1.H.264-POD.mkv
In.Plain.Sight.S05E03.1080p.WEB-DL.DD5.1.H.264-POD.mkv
In.Plain.Sight.S05E04.1080p.WEB-DL.DD5.1.H.264-POD.mkv
In.Plain.Sight.S05E06.1080p.WEB-DL.DD5.1.H.264-POD.mkv
In.Plain.Sight.S05E02.1080p.AMZN.WEB-DL.DDP5.1.H.264-ViSUM.mkv
In.Plain.Sight.S05E05.1080p.AMZN.WEB-DL.DDP5.1.H.264-ViSUM.mkv
In.Plain.Sight.S05E07.1080p.AMZN.WEB-DL.DDP5.1.H.264-ViSUM.mkv
In.Plain.Sight.S05E08.1080p.AMZN.WEB-DL.DDP5.1.H.264-ViSUM.mkv