Useful link:

IMDB

TVRAGE

TVDB

MediaInfo:
General
ID : 2050 (0x802)
Complete name : D:Inside.No.9.S01E01.1080i.HDTV.H.264.DD2.0-Irishman.ts
Format : MPEG-TS
File size : 781 MiB
Duration : 29mn 17s
Overall bit rate mode : Variable
Overall bit rate : 3 725 Kbps

Video
ID : 5500 (0x157C)
Menu ID : 6940 (0x1B1C)
Format : AVC
Format/Info : Advanced Video Codec
Format profile : High@L4.0
Format settings, CABAC : Yes
Format settings, ReFrames : 4 frames
Codec ID : 27
Duration : 29mn 16s
Bit rate : 3 347 Kbps
Width : 1 920 pixels
Height : 1 080 pixels
Display aspect ratio : 16:9
Frame rate : 25.000 fps
Standard : Component
Color space : YUV
Chroma subsampling : 4:2:0
Bit depth : 8 bits
Scan type : MBAFF
Bits/(Pixel*Frame) : 0.065
Stream size : 701 MiB (90%)
Color primaries : BT.709
Transfer characteristics : BT.709
Matrix coefficients : BT.709

Audio
ID : 5501 (0x157D)
Menu ID : 6940 (0x1B1C)
Format : AC-3
Format/Info : Audio Coding 3
Mode extension : CM (complete main)
Format settings, Endianness : Big
Codec ID : 6
Duration : 29mn 16s
Bit rate mode : Constant
Bit rate : 192 Kbps
Channel(s) : 2 channels
Channel positions : Front: L R
Sampling rate : 48.0 KHz
Bit depth : 16 bits
Compression mode : Lossy
Delay relative to video : 3ms
Stream size : 40.2 MiB (5%)
Language : English

Text
ID : 5504 (0x1580)
Menu ID : 6940 (0x1B1C)
Format : DVB Subtitle
Codec ID : 6
Duration : 29mn 7s
Delay relative to video : 4s 258ms
Language : English

Screenshot:




Sign up via clicking banner and a file link to creat a premium account.Then Get the access to protected links.

ExtMatrix Download Links

Inside.No.9.S01E05.The.Understudy.720p.WEBRip.AAC2.0.H.264-iPRiP.mkv