External Links:

General
Complete name : john.from.cincinnati.108.720p.hdtv.x264-sitv.mkv
Format : Matroska
Format version : Version 1
File size : 1.07 GiB
Duration : 50mn 51s
Overall bit rate : 3 019 Kbps

Video
ID : 1
Format : AVC
Format/Info : Advanced Video Codec
Format profile : Main@L5.1
Format settings, CABAC : Yes
Format settings, ReFrames : 4 frames
Codec ID : V_MPEG4/ISO/AVC
Duration : 50mn 51s
Bit rate : 2 632 Kbps
Width : 1 280 pixels
Height : 720 pixels
Display aspect ratio : 16:9
Frame rate mode : Constant
Frame rate : 23.976 fps
Color space : YUV
Chroma subsampling : 4:2:0
Bit depth : 8 bits
Scan type : Progressive
Bits/(Pixel*Frame) : 0.119
Stream size : 937 MiB (85%)
Writing library : x264 core 55 svn-663
Encoding settings : cabac=1 / ref=1 / deblock=1:0:0 / analyse=0x1:0x111 / me=hex / subme=5 /

Audio
ID : 2
Format : AC-3
Format/Info : Audio Coding 3
Mode extension : CM (complete main)
Format settings, Endianness : Big
Codec ID : A_AC3
Duration : 50mn 51s
Bit rate mode : Constant
Bit rate : 384 Kbps
Channel(s) : 6 channels
Channel positions : Front: L C R, Side: L R, LFE
Sampling rate : 48.0 KHz
Bit depth : 16 bits
Compression mode : Lossy
Stream size : 140 MiB (13%)
Language : English
Default : Yes
Forced : No

File Name Size
john.from.cincinnati.101.repack.720p.hdtv.x264 sitv.mkv 1.43 GB
john.from.cincinnati.102.720p.x264 sitv.mkv 1.07 GB
john.from.cincinnati.103.720p.hdtv.x264 sitv.mkv 1.07 GB
john.from.cincinnati.104.x264.mkv 1.07 GB
john.from.cincinnati.105.720p.hdtv.x264 sitv.mkv 1.07 GB
john.from.cincinnati.106.720p.hdtv.x264 sitv.mkv 1.07 GB
john.from.cincinnati.107.720p.hdtv.x264 sitv.mkv 1.07 GB
john.from.cincinnati.108.720p.hdtv.x264 sitv.mkv 1.07 GB
john.from.cincinnati.109.720p.hdtv.x264 sitv.mkv 1.07 GB
john.from.cincinnati.110.720p.hdtv.x264 sitv.mkv 1.07 GB

Screenshot:

Sign up via clicking banner and a file link to creat a premium account.Then Get the access to protected links.

ExtMatrix Download Links

john.from.cincinnati.101.repack.720p.hdtv.x264-sitv.mkv

Click Here for downloading links John from Cincinnati S01 720p HDTV x264 SITV