Series Info
# of Seasons: 5
Country: US
Air Day: Tuesday
Air Time: 10:00 PM
First Aired: 2010-03-16
Rating: TV-MA
Series Status: Returning Series
Runtime: 60 Minutes
Network: FX
Classification: Scripted
TVDB Rating: 8.5
External Links:

Justified (2010– )

TV Series  –  60 min  –  tvAction | tvCrime | tvDrama
8.7

Your rating:

   -/10
Ratings: 8.7/10 from 19,846 users
Reviews: 58 user | 20 critic

Old-school U.S. Marshal Raylan Givens is reassigned from Miami to his childhood home in the poor, rural coal-mining towns in Eastern Kentucky.

 

General
Complete name : Justified.S05E01.1080p.WEB-DL.DD5.1.H.264.HKD.mkv
Format : Matroska
Format version : Version 4 / Version 2
File size : 1.90 GiB
Duration : 49mn 34s
Overall bit rate : 5 487 Kbps
Movie name : ripped by CrazyHDSource.com

Video
ID : 1
Format : AVC
Format/Info : Advanced Video Codec
Format profile : High@L4.0
Format settings, CABAC : Yes
Format settings, ReFrames : 4 frames
Codec ID : V_MPEG4/ISO/AVC
Duration : 49mn 34s
Bit rate : 4 994 Kbps
Width : 1 916 pixels
Height : 1 076 pixels
Display aspect ratio : 16:9
Frame rate mode : Constant
Frame rate : 23.976 fps
Color space : YUV
Chroma subsampling : 4:2:0
Bit depth : 8 bits
Scan type : Progressive
Bits/(Pixel*Frame) : 0.101
Stream size : 1.73 GiB (91%)
Title : ripped by CrazyHDSource.com
Language : English
Default : Yes
Forced : No
Color primaries : BT.709
Transfer characteristics : BT.709
Matrix coefficients : BT.709

Audio
ID : 2
Format : AC-3
Format/Info : Audio Coding 3
Mode extension : CM (complete main)
Format settings, Endianness : Big
Codec ID : A_AC3
Duration : 49mn 34s
Bit rate mode : Constant
Bit rate : 384 Kbps
Channel(s) : 6 channels
Channel positions : Front: L C R, Side: L R, LFE
Sampling rate : 48.0 KHz
Bit depth : 16 bits
Compression mode : Lossy
Stream size : 136 MiB (7%)
Language : English
Default : Yes
Forced : No

Text
ID : 3
Format : UTF-8
Codec ID : S_TEXT/UTF8
Codec ID/Info : UTF-8 Plain Text
Language : English
Default : No
Forced : No

Screenshot:

Sign up via clicking banner and a file link to creat a premium account.

ExtMatrix Download Links

Justified.S05.Season.5.Sneak.Peek.1080p.WEB-DL.AAC2.0.H.264.HKD.mkv
Justified S05E01 720p WEB-DL DD5.1 H.264.mkv

Click Here for downloading links Justified S05E01 P1080p WEB-DL DD5 1 H 264 HKD

Click Here for downloading links Justified S05E02 P1080p WEB-DL DD5 1 H 264 HKD