External Links:

General
Complete name : King.&.Maxwell.S01E01.1080p.WEB-DL.DD5.1.H.264-KiNGS.mkv
Format : Matroska
Format version : Version 4 / Version 2
File size : 1.82 GiB
Duration : 47mn 16s
Overall bit rate : 5 517 Kbps
Writing application : mkvmerge v6.2.0 (‘Promised Land’) built on Apr 28 2013 12:22:01
Writing library : libebml v1.3.0 + libmatroska v1.4.0

Video
ID : 2
Format : AVC
Format/Info : Advanced Video Codec
Format profile : High@L4.0
Format settings, CABAC : Yes
Format settings, ReFrames : 4 frames
Codec ID : V_MPEG4/ISO/AVC
Duration : 47mn 16s
Bit rate : 5 023 Kbps
Width : 1 920 pixels
Height : 1 080 pixels
Display aspect ratio : 16:9
Frame rate mode : Constant
Frame rate : 23.976 fps
Color space : YUV
Chroma subsampling : 4:2:0
Bit depth : 8 bits
Scan type : Progressive
Bits/(Pixel*Frame) : 0.101
Stream size : 1.66 GiB (91%)
Language : English
Default : Yes
Forced : No
Color primaries : BT.709
Transfer characteristics : BT.709
Matrix coefficients : BT.709

Audio
ID : 3
Format : AC-3
Format/Info : Audio Coding 3
Mode extension : CM (complete main)
Format settings, Endianness : Big
Codec ID : A_AC3
Duration : 47mn 16s
Bit rate mode : Constant
Bit rate : 384 Kbps
Channel(s) : 6 channels
Channel positions : Front: L C R, Side: L R, LFE
Sampling rate : 48.0 KHz
Bit depth : 16 bits
Compression mode : Lossy
Stream size : 130 MiB (7%)
Language : English
Default : Yes
Forced : No

Text
ID : 1
Format : UTF-8
Codec ID : S_TEXT/UTF8
Codec ID/Info : UTF-8 Plain Text
Default : Yes
Forced : No

King.&.Maxwell.S01E01.1080p.WEB DL.DD5.1.H.264 KiNGS.mkv1.82 GB

Screenshot:

Sign up via clicking banner and a file link to creat a premium account.

ExtMatrix Download Links

King.&.Maxwell.S01E02.1080p.WEB-DL.DD5.1.H.264.HKD.part1.rar
King.&.Maxwell.S01E02.1080p.WEB-DL.DD5.1.H.264.HKD.part2.rar
King.&.Maxwell.S01E02.1080p.WEB-DL.DD5.1.H.264.HKD.part3.rar
King.&.Maxwell.S01E02.1080p.WEB-DL.DD5.1.H.264.HKD.part4.rar
King.&.Maxwell.S01E03.1080p.WEB-DL.DD5.1.H.264.HKD.part1.rar
King.&.Maxwell.S01E03.1080p.WEB-DL.DD5.1.H.264.HKD.part2.rar
King.&.Maxwell.S01E03.1080p.WEB-DL.DD5.1.H.264.HKD.part3.rar
King.&.Maxwell.S01E03.1080p.WEB-DL.DD5.1.H.264.HKD.part4.rar
King.&.Maxwell.S01E05.1080p.WEB-DL.DD5.1.H.264.HKD.part1.rar
King.&.Maxwell.S01E05.1080p.WEB-DL.DD5.1.H.264.HKD.part2.rar
King.&.Maxwell.S01E06.1080p.WEB-DL.DD5.1.H.264.HKD.part1.rar
King.&.Maxwell.S01E06.1080p.WEB-DL.DD5.1.H.264.HKD.part2.rar
King.And.Maxwell.S01E07.Family.Business.1080p.WEB-DL.DD5.1.H.264-Abjex.mkv
King.And.Maxwell.S01E08.Job.Security.1080p.WEB-DL.DD5.1.H264-Abjex.mkv
King.&.Maxwell.S01E09.1080p.WEB-DL.DD5.1.H.264.HKD.part1.rar
King.&.Maxwell.S01E09.1080p.WEB-DL.DD5.1.H.264.HKD.part2.rar
King.&.Maxwell.S01E10.1080p.WEB-DL.DD5.1.H.264.HKD.part1.rar
King.&.Maxwell.S01E10.1080p.WEB-DL.DD5.1.H.264.HKD.part2.rar
King.and.Maxwell.S01E01.1080p.WEB-DL.DD5.1.H.264-KiNGS.mkv
King.&.Maxwell.S01E04.1080p.WEB-DL.DD5.1.H.264-KiNGS.mkv