Useful link:

MediaInfo:
General
Complete name : labor.day.2013.720p.bluray.x264.sparks.mkv
Format : Matroska
Format version : Version 2
File size : 4.37 GiB
Duration : 1h 51mn
Overall bit rate : 5 622 Kbps

Video
ID : 1
Format : AVC
Format/Info : Advanced Video Codec
Format profile : High@L4.1
Format settings, CABAC : Yes
Format settings, ReFrames : 5 frames
Codec ID : V_MPEG4/ISO/AVC
Duration : 1h 51mn
Bit rate : 4 111 Kbps
Width : 1 280 pixels
Height : 536 pixels
Display aspect ratio : 2.40:1
Frame rate mode : Constant
Frame rate : 23.976 fps
Color space : YUV
Chroma subsampling : 4:2:0
Bit depth : 8 bits
Scan type : Progressive
Bits/(Pixel*Frame) : 0.250
Stream size : 3.11 GiB (71%)
Writing library : x264 core 140 r2377 1ca7bb9
Encoding settings : cabac=1 / ref=5 / deblock=1:0:0 / analyse=0x3:0x133 / me=umh / subme=7 / psy=1 /

Audio
ID : 2
Format : DTS
Format/Info : Digital Theater Systems
Mode : 16
Format settings, Endianness : Big
Codec ID : A_DTS
Duration : 1h 51mn
Bit rate mode : Constant
Bit rate : 1 509 Kbps
Channel(s) : 6 channels
Channel positions : Front: L C R, Side: L R, LFE
Sampling rate : 48.0 KHz
Bit depth : 24 bits
Compression mode : Lossy
Stream size : 1.17 GiB (27%)
Language : English
Default : Yes
Forced : No

Menu
00:00:00.000 : en:00:00:00.000
00:06:36.313 : en:00:06:36.313
00:12:46.641 : en:00:12:46.641
00:18:25.021 : en:00:18:25.021
00:25:39.163 : en:00:25:39.163
00:33:48.360 : en:00:33:48.360
00:41:06.214 : en:00:41:06.214
00:48:19.480 : en:00:48:19.480
00:57:00.459 : en:00:57:00.459
01:07:58.032 : en:01:07:58.032
01:13:12.346 : en:01:13:12.346
01:19:58.752 : en:01:19:58.752
01:22:27.943 : en:01:22:27.943
01:29:03.255 : en:01:29:03.255
01:33:53.253 : en:01:33:53.253
01:46:36.932 : en:01:46:36.932

Screenshot:

Sign up via clicking banner and a file link to creat a premium account.Then Get the access to protected links.

ExtMatrix Download Links

Labor.Day.2013.720p.BluRay.x264.SPARKS.idx