Series Info
# of Seasons: 3
Country: US
Air Day: Tuesday
Air Time: 20:00
First Aired: 2011-10-11
Rating: TV-14
Series Status: New Series
Runtime: 30 Minutes
Network: ABC
Classification: Scripted
TVDB Rating: 9.3
External Links:

Last Man Standing (2011)

TV Series – 30 min – tvComedy
7.1

Your rating:

-/10
Ratings: 7.1/10 from 3,544 users
Reviews: 22 user | 4 critic
A married father of three tries to maintain his manliness in a world increasingly dominated by women.

General
Complete name : Last.Man.Standing.S03E01.1080p.WEB-DL.DD5.1.H.264.HKD.mkv
Format : Matroska
Format version : Version 4 / Version 2
File size : 869 MiB
Duration : 21mn 41s
Overall bit rate : 5 603 Kbps
Movie name : ripped by CrazyHDSource.com

Video
ID : 1
Format : AVC
Format/Info : Advanced Video Codec
Format profile : High@L4.0
Format settings, CABAC : Yes
Format settings, ReFrames : 4 frames
Codec ID : V_MPEG4/ISO/AVC
Duration : 21mn 41s
Bit rate : 5 107 Kbps
Width : 1 912 pixels
Height : 1 072 pixels
Display aspect ratio : 16:9
Frame rate mode : Constant
Frame rate : 23.976 fps
Color space : YUV
Chroma subsampling : 4:2:0
Bit depth : 8 bits
Scan type : Progressive
Bits/(Pixel*Frame) : 0.104
Stream size : 792 MiB (91%)
Title : ripped by CrazyHDSource.com
Language : English
Default : Yes
Forced : No
Color primaries : BT.709
Transfer characteristics : BT.709
Matrix coefficients : BT.709

Audio
ID : 2
Format : AC-3
Format/Info : Audio Coding 3
Mode extension : CM (complete main)
Format settings, Endianness : Big
Codec ID : A_AC3
Duration : 21mn 41s
Bit rate mode : Constant
Bit rate : 384 Kbps
Channel(s) : 6 channels
Channel positions : Front: L C R, Side: L R, LFE
Sampling rate : 48.0 KHz
Bit depth : 16 bits
Compression mode : Lossy
Stream size : 59.6 MiB (7%)
Language : English
Default : Yes
Forced : No

Text
ID : 3
Format : UTF-8
Codec ID : S_TEXT/UTF8
Codec ID/Info : UTF-8 Plain Text
Language : English
Default : No
Forced : No

Screenshot:

Sign up via clicking banner and a file link to creat a premium account.Then Get the access to protected links.

ExtMatrix Download Links

Last.Man.Standing.S03E01.1080p.WEB-DL.DD5.1.H.264.HKD.part1.rar
Last.Man.Standing.S03E01.1080p.WEB-DL.DD5.1.H.264.HKD.part2.rar
Last.Man.Standing.US.S03E03.720p.HDTV.X264-DIMENSION.mkv
last.man.standing.us.s03e08.720p.hdtv.x264-2hd.mkv
last.man.standing.us.s03e09.720p.hdtv.x264-2hd.mkv
Last.Man.Standing.S03E10.1080p.WEB-DL.DD5.1.H.264.HKD.part1.rar
Last.Man.Standing.S03E10.1080p.WEB-DL.DD5.1.H.264.HKD.part2.rar
last.man.standing.us.s03e12.720p.hdtv.x264-killers.mkv

Click Here for downloading links Last Man Standing S03E02 p1080p WEB-DL DD5 1 H 264 HKD

Click Here for downloading links Last Man Standing S03E03 p1080p WEB-DL DD5 1 H 264 HKD

Click Here for downloading links Last Man Standing S03E04 p1080p WEB-DL DD5 1 H 264 HKD

Click Here for downloading links Last Man Standing S03E05 p1080p WEB-DL DD5 1 H 264 HKD

Click Here for downloading links Last Man Standing S03E06 p1080p WEB-DL DD5 1 H 264 HKD

Click Here for downloading links Last Man Standing S03E07 p1080p WEB-DL DD5 1 H 264 HKD

Click Here for downloading links Last Man Standing S03E08 p1080p WEB-DL DD5 1 H 264 HKD

Click Here for downloading links Last Man Standing S03E09 p1080p WEB-DL DD5 1 H 264 HKD

Click Here for downloading links Last Man Standing S03E11 p1080p WEB-DL DD5 1 H 264 HKD

Click Here for downloading links Last Man Standing S03E12 p1080p WEB-DL DD5 1 H 264 HKD

Click Here for downloading links Last Man Standing S03E13 p1080p WEB-DL DD5 1 H 264 HKD