External Links:

General
Complete name : Law.and.Order.SVU.S15E01E02.1080p.WEB-DL.DD5.1.H.264.HKD.mkv
Format : Matroska
Format version : Version 4 / Version 2
File size : 3.07 GiB
Duration : 1h 23mn
Overall bit rate : 5 233 Kbps
Movie name : ripped by CrazyHDSource.com

Video
ID : 1
Format : AVC
Format/Info : Advanced Video Codec
Format profile : High@L4.0
Format settings, CABAC : Yes
Format settings, ReFrames : 4 frames
Codec ID : V_MPEG4/ISO/AVC
Duration : 1h 23mn
Bit rate : 4 745 Kbps
Width : 1 920 pixels
Height : 1 080 pixels
Display aspect ratio : 16:9
Frame rate mode : Constant
Frame rate : 23.976 fps
Color space : YUV
Chroma subsampling : 4:2:0
Bit depth : 8 bits
Scan type : Progressive
Bits/(Pixel*Frame) : 0.095
Stream size : 2.78 GiB (91%)
Title : ripped by CrazyHDSource.com
Language : English
Default : Yes
Forced : No
Color primaries : BT.709
Transfer characteristics : BT.709
Matrix coefficients : BT.709

Audio
ID : 2
Format : AC-3
Format/Info : Audio Coding 3
Mode extension : CM (complete main)
Format settings, Endianness : Big
Codec ID : A_AC3
Duration : 1h 23mn
Bit rate mode : Constant
Bit rate : 384 Kbps
Channel(s) : 6 channels
Channel positions : Front: L C R, Side: L R, LFE
Sampling rate : 48.0 KHz
Bit depth : 16 bits
Compression mode : Lossy
Stream size : 231 MiB (7%)
Language : English
Default : Yes
Forced : No

Text
ID : 3
Format : UTF-8
Codec ID : S_TEXT/UTF8
Codec ID/Info : UTF-8 Plain Text
Language : English
Default : No
Forced : No

Law.and.Order.SVU.S15.Law.&.Order_.LOL.1080p.WEB-DL.AAC2.0.H.264.HKD.mkv 53.56 MB
Screenshot:

Sign up via clicking banner and a file link to creat a premium account.Then Get the access to protected links.

ExtMatrix Download Links

Law.and.Order.SVU.S15.Law.&.Order_.LOL.1080p.WEB-DL.AAC2.0.H.264.HKD.mkv
Law.and.Order.SVU.S15E01E02.720p.HDTV.X264-DIMENSION.mkv
Law.and.Order.SVU.S15E03.720p.HDTV.X264-DIMENSION.mkv
Law.and.Order.SVU.S15E04.720p.HDTV.X264-DIMENSION.mkv
Law.and.Order.SVU.S15E05.720p.HDTV.X264-DIMENSION.mkv
Law.and.Order.SVU.S15E06.October.Surprise.1080p.WEB-DL.DD5.1.H.264-NTb.mkv
Law.and.Order.S15E08.720p.HDTV.X264-DIMENSION.mkv
Law.and.Order.SVU.S15E09.Rapist.Anonymous.1080p.WEB-DL.DD5.1.H.264-NTb.mkv
Law.and.Order.SVU.S15E10.720p.HDTV.X264-DIMENSION.mkv

Click Here for downloading links Law and Order SVU S15E01E02 1080p WEB-DL DD5 1 H 264 HKD

Click Here for downloading links Law and Order SVU S15E03 1080p WEB-DL DD5 1 H 264 HKD

Click Here for downloading links Law and Order SVU S15E04 1080p WEB-DL DD5 1 H 264 HKD

Click Here for downloading links Law and Order SVU S15E05 1080p WEB-DL DD5 1 H 264 HKD

Click Here for downloading links Law and Order SVU S15E07 1080p WEB-DL DD5 1 H 264 HKD

Click Here for downloading links Law and Order SVU S15E08 1080p WEB-DL DD5 1 H 264 HKD

Click Here for downloading links Law and Order SVU S15E10 1080p WEB-DL DD5 1 H 264 HKD