Includes English SSA sub in rar file.

Series Info
# of Seasons: 1
Country: FR
Air Day: Monday
Air Time: 20H55
First Aired: 2012-11-26
Rating: TV-14
Series Status: New Series
Runtime: 50 Minutes
Network: Canal+
Classification: Scripted
TVDB Rating: 8.3
External Links:

The Returned (2012– )
“Les revenants” (original title)

General
Complete name : Les.Revenants.S01E06.720p.BluRay.x264-JMT.mkv
Format : Matroska
Format version : Version 2
File size : 2.18 GiB
Duration : 55mn 30s
Overall bit rate : 5 622 Kbps

Video
ID : 1
Format : AVC
Format/Info : Advanced Video Codec
Format profile : High@L3.1
Format settings, CABAC : Yes
Format settings, ReFrames : 5 frames
Codec ID : V_MPEG4/ISO/AVC
Duration : 55mn 30s
Bit rate : 4 130 Kbps
Width : 1 280 pixels
Height : 720 pixels
Display aspect ratio : 16:9
Frame rate mode : Constant
Frame rate : 25.000 fps
Color space : YUV
Chroma subsampling : 4:2:0
Bit depth : 8 bits
Scan type : Progressive
Bits/(Pixel*Frame) : 0.179
Stream size : 1.55 GiB (71%)
Writing library : x264 core 140 r2377 1ca7bb9
Encoding settings : cabac=1 / ref=5 / deblock=1:0:0 / analyse=0x3:0x133 / me=umh / subme=7 / psy=1 /

Audio
ID : 2
Format : DTS
Format/Info : Digital Theater Systems
Mode : 16
Format settings, Endianness : Big
Codec ID : A_DTS
Duration : 55mn 30s
Bit rate mode : Constant
Bit rate : 1 509 Kbps
Channel(s) : 6 channels
Channel positions : Front: L C R, Side: L R, LFE
Sampling rate : 48.0 KHz
Bit depth : 24 bits
Compression mode : Lossy
Stream size : 599 MiB (27%)
Title : DTS 5.1
Language : French
Default : Yes
Forced : No

Text
ID : 3
Format : UTF-8
Codec ID : S_TEXT/UTF8
Codec ID/Info : UTF-8 Plain Text
Language : English
Default : Yes
Forced : No

Menu
00:00:00.000 : en:00:00:00.000
00:10:44.880 : en:00:10:44.880
00:19:45.280 : en:00:19:45.280
00:29:52.760 : en:00:29:52.760
00:39:05.800 : en:00:39:05.800
00:47:28.120 : en:00:47:28.120

Les.Revenants.s01e01.Camille.WEB-DL.720p.Rus.(MVO.Agatha.Studdio).Fre.mkv
Format : Matroska
Format version : Version 2
File size : 2.05 GB
Duration : 54mn 58s 656ms
Overall bit rate : 4 960 Kbps

Video
Format : AVC
Duration : 54mn 58s 640ms
Bit rate : 4 093 Kbps
Width : 960 pixels
Height : 718 pixels
Display aspect ratio : 16:9
Frame rate mode : Constant
Frame rate : 25.000 fps

Audio #1
Format : AC-3
Duration : 54mn 58s 656ms
Channel(s) : 6 channels
Title : MVO Agatha Studdio 5.1 @ 384 Kbps
Language : Russian

Audio #2
Format : AC-3
Duration : 54mn 58s 656ms
Channel(s) : 6 channels
Title : Original 5.1 @ 384 Kbps
Language : French
Les.Revenants.S01E01.720p.BluRay.x264-JMT.mkv 2.18 GB
Les.Revenants.S01E02.720p.BluRay.x264-JMT.mkv 2.18 GB
Les.Revenants.S01E03.720p.BluRay.x264-JMT.mkv 2.18 GB
Les.Revenants.S01E04.720p.BluRay.x264-JMT.mkv 2.18 GB
Les.Revenants.S01E05.720p.BluRay.x264-JMT.mkv 2.19 GB
Les.Revenants.S01E06.720p.BluRay.x264-JMT.mkv 2.18 GB
Les.Revenants.S01E07.720p.BluRay.x264-JMT.mkv 2.18 GB
Les.Revenants.S01E08.720p.BluRay.x264-JMT.mkv 2.18 GB

File Name Size
Les.Revenants.s01e01.Camille.WEB DL.720p.Rus.(MVO.Agatha.Studdio).Fre.mkv 1.90 GB
Les.Revenants.s01e02.Simon.WEB DL.720p.Rus.(MVO.Agatha.Studdio).Fre.mkv 1.67 GB
Les.Revenants.s01e03.Julie.WEB DL.720p.Rus.(MVO.Agatha.Studdio).Fre.mkv 1.66 GB
Les.Revenants.s01e04.Victor.WEB DL.720p.Rus.(MVO.Agatha.Studdio).Fre.mkv 1.71 GB
Les.Revenants.s01e05.Toni.WEB DL.720p.Rus.(MVO.Agatha.Studdio).Fre.mkv 1.77 GB
Les.Revenants.s01e06.Lucy.WEB DL.720p.Rus.(MVO.Agatha.Studdio).Fre.mkv 1.85 GB
Les.Revenants.s01e07.Adele.WEB DL.720p.Rus.(MVO.Agatha.Studdio).Fre.mkv 1.64 GB
Les.Revenants.s01e08.La.Horde.WEB DL.720p.Rus.(MVO.Agatha.Studdio).Fre.mkv 1.83 GB

Screenshot:



Sign up via clicking banner and a file link to creat a premium account.

ExtMatrix Download Links
Les.Revenants.s01e01.Camille.WEB-DL.720p.Rus.(MVO.Agatha.Studdio).Fre.mkv
Les.Revenants.S01E01.720p.BluRay.x264-JMT.mkv
Les.Revenants.S01E02.720p.BluRay.x264-JMT.mkv
Les.Revenants.S01E04.720p.BluRay.x264-JMT.mkv
Les.Revenants.S01E05.720p.BluRay.x264-JMT.mkv
Les.Revenants.S01E06.720p.BluRay.x264-JMT.mkv
Be my referral user to get all rar parts.
Les Revenants S01 WEB-DL 720p DD5.1 H.264