External Links:

General
Complete name : Lie.To.Me.S01E06.Do.No.Harm.720p.BluRay.DTS.x264-CtrlHD.mkv
Format : Matroska
Format version : Version 2
File size : 2.45 GiB
Duration : 43mn 51s
Overall bit rate : 8 007 Kbps

Video
ID : 1
Format : AVC
Format/Info : Advanced Video Codec
Format profile : Main@L4.1
Format settings, CABAC : Yes
Format settings, ReFrames : 9 frames
Codec ID : V_MPEG4/ISO/AVC
Duration : 43mn 51s
Bit rate : 6 500 Kbps
Width : 1 280 pixels
Height : 720 pixels
Display aspect ratio : 16:9
Frame rate mode : Constant
Frame rate : 23.976 fps
Color space : YUV
Chroma subsampling : 4:2:0
Bit depth : 8 bits
Scan type : Progressive
Bits/(Pixel*Frame) : 0.294
Stream size : 1.94 GiB (79%)
Title : MPEG4/AVC
Writing library : x264 core 80 r1376M 3feaec2
Encoding settings : cabac=1 / ref=9 / deblock=1:-3:-3 / analyse=0x1:0x131 / me=umh / subme=10 /

Audio
ID : 2
Format : DTS
Format/Info : Digital Theater Systems
Mode : 16
Format settings, Endianness : Big
Codec ID : A_DTS
Duration : 43mn 51s
Bit rate mode : Constant
Bit rate : 1 509 Kbps
Channel(s) : 6 channels
Channel positions : Front: L C R, Side: L R, LFE
Sampling rate : 48.0 KHz
Bit depth : 24 bits
Compression mode : Lossy
Stream size : 473 MiB (19%)
Title : English DTS, 1510 Kbps
Language : English
Default : Yes
Forced : No

Lie.To.Me.S01E01.Pilot.720p.BluRay.DTS.x264 CtrlHD.mkv    2.61 GB
Lie.To.Me.S01E02.Moral.Waiver.720p.BluRay.DTS.x264 CtrlHD.mkv    2.46 GB
Lie.To.Me.S01E03.A.Perfect.Score.720p.BluRay.DTS.x264 CtrlHD.mkv    2.47 GB
Lie.To.Me.S01E04.Love.Always.720p.BluRay.DTS.x264 CtrlHD.mkv    2.40 GB
Lie.To.Me.S01E05.Unchained.720p.BluRay.DTS.x264 CtrlHD.mkv    2.46 GB
Lie.To.Me.S01E06.Do.No.Harm.720p.BluRay.DTS.x264 CtrlHD.mkv    2.45 GB
Lie.To.Me.S01E08.Depraved.Heart.720p.BluRay.DTS.x264 CtrlHD.mkv    2.46 GB
Lie.To.Me.S01E07.The.Best.Policy.720p.BluRay.DTS.x264 CtrlHD.mkv    2.46 GB
Lie.To.Me.S01E09.Life.Is.Priceless.720p.BluRay.DTS.x264 CtrlHD.mkv    2.41 GB
Lie.To.Me.S01E10.Better.Half.720p.BluRay.DTS.x264 CtrlHD.mkv    2.46 GB
Lie.To.Me.S01E11.Undercover.720p.BluRay.DTS.x264 CtrlHD.mkv    2.46 GB
Lie.To.Me.S01E12.Blinded.720p.BluRay.DTS.x264 CtrlHD.mkv    2.47 GB
Lie.To.Me.S01E13.Sacrifice.720p.BluRay.DTS.x264 CtrlHD.mkv    2.46 GB

Lie.to.Me.S02E01.The.Core.of.It.720p.WEB DL.DD5.1.H.264 DNR.mkv    1.38 GB
Lie.to.Me.S02E02.Truth.or.Consequences.720p.WEB DL.DD5.1.H.264 DNR.mkv    1.39 GB
Lie.to.Me.S02E03.Control.Factor.720p.WEB DL.DD5.1.H.264 DNR.mkv    1.37 GB
Lie.to.Me.S02E04.Honey.720p.WEB DL.DD5.1.H.264 DNR.mkv    1.37 GB
Lie.to.Me.S02E05.Grievous.Bodily.Harm.720p.WEB DL.DD5.1.H.264 DNR.mkv    1.31 GB
Lie.to.Me.S02E06.Lack.of.Candor.720p.WEB DL.DD5.1.H.264 DNR.mkv    1.37 GB
Lie.to.Me.S02E07.Black.Friday.720p.WEB DL.DD5.1.H.264 DNR.mkv    1.34 GB
Lie.to.Me.S02E08.Secret.Santa.720p.WEB DL.DD5.1.H.264 DNR.mkv    1.35 GB
Lie.to.Me.S02E09.Fold.Equity.720p.WEB DL.DD5.1.H.264 DNR.mkv    1.37 GB
Lie.to.Me.S02E10.Tractor.Man.720p.WEB DL.DD5.1.H.264 DNR.mkv    1.35 GB
Lie.to.Me.S02E11.Beat.the.Devil.720p.WEB DL.DD5.1.H.264 DNR.mkv    1.37 GB
Lie.to.Me.S02E12.Sweet.Sixteen.720p.WEB DL.DD5.1.H.264 DNR.mkv    1.32 GB
Lie.to.Me.S02E13.The.Whole.Truth.720p.WEB DL.DD5.1.H.264 DNR.mkv    1.34 GB
Lie.to.Me.S02E14.React.to.Contact.720p.WEB DL.DD5.1.H.264 DNR.mkv    1.40 GB
Lie.to.Me.S02E15.Teachers.and.Pupils.720p.WEB DL.DD5.1.H.264 SG3.mkv    1.33 GB
Lie.to.Me.S02E16.Delinquent.720p.WEB DL.DD5.1.H.264 NFHD.mkv    1.40 GB
Lie.to.Me.S02E17.Bullet.Bump.720p.WEB DL.DD5.1.H.264 NFHD.mkv    1.31 GB
Lie.to.Me.S02E18.Headlock.720p.WEB DL.DD5.1.H.264 NFHD.mkv    1.34 GB
Lie.to.Me.S02E19.Pied.Piper.720p.WEB DL.DD5.1.H.264 NFHD.mkv    1.40 GB
Lie.to.Me.S02E20.Exposed.720p.WEB DL.DD5.1.H.264 SK.mkv    1.36 GB
Lie.to.Me.S02E21.Darkness.and.Light.720p.WEB DL.DD5.1.H.264 SK.mkv    1.31 GB
Lie.to.Me.S02E22.Black.and.White.720p.WEB DL.DD5.1.H.264 SK.mkv    1.42 GB

Lie to Me S03E01 720p WEB DL DD5.1 H264 NFHD.mkv    1.51 GB
Lie To Me S03E02 720p WEB DL DD5.1 H264 EbP.mkv    1.41 GB
Lie to Me S03E03 720p WEB DL DD5.1 H264 NFHD.mkv    1.50 GB
Lie To Me S03E04 720p WEB DL DD5.1 H264 EbP.mkv    1.40 GB
Lie to Me S03E05 720p WEB DL DD5.1 H264 NFHD.mkv    1.40 GB
Lie to Me S03E06 720p WEB DL DD5.1 H264 EbP.mkv    1.44 GB
Lie.to.Me.S03E07.Veronica.720p.WEB DL.DD5.1.h.264.mkv    1.39 GB
Lie.to.Me.S03E08.720p.WEB DL.DD5.1.H264 RUSH.mkv    1.35 GB
Lie to Me S03E09 720p WEB DL DD5.1 H264 NFHD.mkv    1.49 GB
Lie to Me S03E10 720p WEB DL DD5.1 H264 NFHD.mkv    1.40 GB
Lie.to.Me.S03E11.720p.WEB DL.DD5.1.H264 NFHD.mkv    1.49 GB
Lie.to.Me.S03E12.720p.WEB DL.DD5.1.H264 NFHD.mkv    1.41 GB
Lie.to.Me.S03E13.720p.WEB DL.DD5.1.H264 NFHD.mkv    1.44 GB

Screenshot:

Sign up via clicking banner and a file link to creat a premium account.Then Get the access to protected links.

ExtMatrix Download Links
Lie.To.Me.S01E01.Pilot.720p.BluRay.DTS.x264-CtrlHD.mkv
Click Here for downloading links Lie To Me S01 S02 S03 720p BluRay WEB-DL