Useful link:

MediaInfo:
General
Complete name : Life.of.Crime.2013.720p.WEB-DL.x264-ETRG.mkv
Format : Matroska
Format version : Version 4 / Version 2
File size : 3.04 GiB
Duration : 1h 40mn
Overall bit rate : 4 322 Kbps

Video
ID : 1
Format : AVC
Format/Info : Advanced Video Codec
Format profile : Main@L3.1
Format settings, CABAC : No
Format settings, ReFrames : 2 frames
Codec ID : V_MPEG4/ISO/AVC
Duration : 1h 40mn
Bit rate : 3 852 Kbps
Width : 1 280 pixels
Height : 534 pixels
Display aspect ratio : 2.40:1
Frame rate mode : Constant
Frame rate : 23.976 fps
Color space : YUV
Chroma subsampling : 4:2:0
Bit depth : 8 bits
Scan type : Progressive
Bits/(Pixel*Frame) : 0.235
Stream size : 2.71 GiB (89%)
Language : English
Default : Yes
Forced : No
Color primaries : BT.709
Transfer characteristics : BT.709
Matrix coefficients : BT.709

Audio
ID : 2
Format : AC-3
Format/Info : Audio Coding 3
Mode extension : CM (complete main)
Format settings, Endianness : Big
Codec ID : A_AC3
Duration : 1h 40mn
Bit rate mode : Constant
Bit rate : 384 Kbps
Channel(s) : 6 channels
Channel positions : Front: L C R, Side: L R, LFE
Sampling rate : 48.0 KHz
Bit depth : 16 bits
Compression mode : Lossy
Stream size : 277 MiB (9%)
Language : English
Default : Yes
Forced : No

Text
ID : 3
Format : UTF-8
Codec ID : S_TEXT/UTF8
Codec ID/Info : UTF-8 Plain Text
Default : Yes
Forced : No

Menu
00:00:00.000 : en:Chapter 1
00:06:10.000 : en:Chapter 2
00:12:20.000 : en:Chapter 3
00:17:34.000 : en:Chapter 4
00:26:06.000 : en:Chapter 5
00:31:21.000 : en:Chapter 6
00:36:47.000 : en:Chapter 7
00:48:42.000 : en:Chapter 8
00:55:35.000 : en:Chapter 9
01:02:17.000 : en:Chapter 10
01:08:27.000 : en:Chapter 11
01:15:51.000 : en:Chapter 12
01:20:23.000 : en:Chapter 13
01:25:23.000 : en:Chapter 14
01:30:31.000 : en:Chapter 15
01:34:58.000 : en:Chapter 16

Screenshot:

Sign up via clicking banner and a file link to creat a premium account.Then Get the access to protected links.

ExtMatrix Download Links

Life.of.Crime.2013.720p.WEB-DL.x264-ETRG.mkv