Lingerie.S01.WEB.DivX BTN|S02.WEB.DiVX NOGRP

Series Info
# of Seasons: 2
Country: US
Air Day: Friday
Air Time: Midnight
First Aired: 2009-07-03
Rating: TV-MA
Series Status: Returning Series
Runtime: 30 Minutes
Network: Cinemax
Classification: Scripted
TVDB Rating: 0.0
External Links: Lingerie.S01.WEB.DivX BTN|S02.WEB.DiVX NOGRP  Lingerie.S01.WEB.DivX BTN|S02.WEB.DiVX NOGRP  Lingerie.S01.WEB.DivX BTN|S02.WEB.DiVX NOGRP

1

“Lingerie” is a sexy new cable series featuring an ensemble cast of beautiful people who design…

Creator:

John Quinn

Stars:

Jennifer Korbin, Michael Scratch and Geoff Stevens

Lingerie.S01.WEB.DivX-BTN

General
Complete name : LINGERIE 02. DESIGNER LOVE.avi
Format : AVI
Format/Info : Audio Video Interleave
File size : 338 MiB
Duration : 28mn 53s
Overall bit rate : 1 634 Kbps
Video #0
ID : 0
Format : MPEG-4 Visual
Format settings, BVOP : 1
Format settings, QPel : No
Format settings, GMC : No warppoints
Format settings, Matrix : Default (H.263)
Muxing mode : Packed bitstream
Codec ID : DX50
Codec ID/Hint : DivX 5
Duration : 28mn 53s
Bit rate : 1 398 Kbps
Width : 720 pixels
Height : 362 pixels
Display aspect ratio : 1.989
Frame rate : 29.970 fps
Color space : YUV
Chroma subsampling : 4:2:0
Bit depth : 8 bits
Scan type : Progressive
Compression mode : Lossy
Bits/(Pixel*Frame) : 0.179
Stream size : 289 MiB (86%)
Writing library : DivX 6.8.5 (UTC 2009-08-20)
Audio #1
ID : 1
Format : MPEG Audio
Format version : Version 1
Format profile : Layer 3
Codec ID : 55
Codec ID/Hint : MP3
Duration : 28mn 53s
Bit rate mode : Constant
Bit rate : 128 Kbps
Channel(s) : 2 channels
Sampling rate : 44.1 KHz
Compression mode : Lossy
Stream size : 26.5 MiB (8%)
Alignment : Split accross interleaves
Interleave, duration : 72 ms (2.16 video frames)
Interleave, preload duration : 296 ms

File Name Size
LINGERIE 13. RAGS TO RICHES.avi 408.45 MB
LINGERIE 11. MODEL GIRLFRIENDS.avi 370.06 MB
LINGERIE 08. EVERYONE’S A CRITIC.avi 344.12 MB
LINGERIE 09. MODEL BEHAVIOUR.avi 343.17 MB
LINGERIE 10. DOUBLE DOUBLE.avi 342.44 MB
LINGERIE 06. BY DESIGN.avi 340.93 MB
LINGERIE 04. RUSS GETS HIS GIRL.avi 340.62 MB
LINGERIE 02. DESIGNER LOVE.avi 337.78 MB
LINGERIE 05. TEMPTATION.avi 337.45 MB
LINGERIE 07. COMFORT FIT.avi 334.67 MB
LINGERIE 03. DOUBLE OR NOTHING.avi 328.83 MB
LINGERIE 12. RUNWAY READY.avi 315.05 MB
LINGERIE 01. PICTURE PERFECT.AVI 237.62 MB

Lingerie.S02.WEB.DiVX-NOGRP

 

General
Complete name : Posted.by.DD_Lingerie_S2_Episode 1 Careful What You Wish For.avi
Format : AVI
Format/Info : Audio Video Interleave
File size : 340 MiB
Duration : 29mn 7s
Overall bit rate : 1 631 Kbps

Video
ID : 0
Format : MPEG-4 Visual
Format settings, BVOP : 1
Format settings, QPel : No
Format settings, GMC : No warppoints
Format settings, Matrix : Default (H.263)
Muxing mode : Packed bitstream
Codec ID : DX50
Codec ID/Hint : DivX 5
Duration : 29mn 7s
Bit rate : 1 395 Kbps
Width : 720 pixels
Height : 362 pixels
Display aspect ratio : 1.989
Frame rate : 29.970 fps
Color space : YUV
Chroma subsampling : 4:2:0
Bit depth : 8 bits
Scan type : Progressive
Compression mode : Lossy
Bits/(Pixel*Frame) : 0.179
Stream size : 291 MiB (85%)
Writing library : DivX 6.8.5 (UTC 2009-08-20)

Audio
ID : 1
Format : MPEG Audio
Format version : Version 1
Format profile : Layer 3
Codec ID : 55
Codec ID/Hint : MP3
Duration : 29mn 7s
Bit rate mode : Constant
Bit rate : 128 Kbps
Channel(s) : 2 channels
Sampling rate : 44.1 KHz
Compression mode : Lossy
Stream size : 26.7 MiB (8%)
Alignment : Split accross interleaves
Interleave, duration : 72 ms (2.16 video frames)
Interleave, preload duration : 3165 ms

File Name Size
Posted.by.DD Lingerie S2 Episode 13 Walk the Walk.avi 365.62 MB
Posted.by.DD Lingerie S2 Episode 7 Shes Got Legs.avi 343.88 MB
Posted.by.DD Lingerie S2 Episode 3 Everybody Loves Cody.avi 341.77 MB
Posted.by.DD Lingerie S2 Episode 10 Naughty Couture.avi 339.90 MB
Posted.by.DD Lingerie S2 Episode 1 Careful What You Wish For.avi 339.88 MB
Posted.by.DD Lingerie S2 Episode 8 Nothings Ever Easy.avi 339.84 MB
Posted.by.DD Lingerie S2 Episode 12 Exposed.avi 339.74 MB
Posted.by.DD Lingerie S2 Episode 9 Screwed.avi 339.34 MB
Posted.by.DD Lingerie S2 Episode 6 The Morning After.avi 338.37 MB
Posted.by.DD Lingerie S2 Episode 2 Looks Are Deceiving.avi 338.05 MB
Posted.by.DD Lingerie S2 Episode 4 Worse for the Wear.avi 337.72 MB
Posted.by.DD Lingerie S2 Episode 5 Three Is Never a Crowd.avi 332.63 MB
Posted.by.DD Lingerie S2 Episode 11 Exotic Dancer.avi 324.27 MB

Sign up via clicking banner and a file link to creat a premium account.
Lingerie.S01.WEB.DivX BTN|S02.WEB.DiVX NOGRP
ExtMatrix Links