External Links:

General
Complete name : tvr-lipstick-jungle-s02e05-720p.mkv
Format : Matroska
Format version : Version 2
File size : 1.33 GiB
Duration : 41mn 7s
Overall bit rate : 4 625 Kbps

Video
ID : 1
Format : AVC
Format/Info : Advanced Video Codec
Format profile : High@L3.1
Format settings, CABAC : No
Format settings, ReFrames : 2 frames
Codec ID : V_MPEG4/ISO/AVC
Duration : 41mn 7s
Bit rate : 4 149 Kbps
Width : 1 280 pixels
Height : 720 pixels
Display aspect ratio : 16:9
Frame rate mode : Constant
Frame rate : 23.976 fps
Color space : YUV
Chroma subsampling : 4:2:0
Bit depth : 8 bits
Scan type : Progressive
Bits/(Pixel*Frame) : 0.188
Stream size : 1.19 GiB (90%)
Title : Chapter Twelve – Scar, Scary Night
Language : English
Default : Yes
Forced : No
Color primaries : BT.709
Transfer characteristics : BT.709
Matrix coefficients : BT.709

Audio
ID : 2
Format : AC-3
Format/Info : Audio Coding 3
Mode extension : CM (complete main)
Format settings, Endianness : Big
Codec ID : A_AC3
Duration : 41mn 7s
Bit rate mode : Constant
Bit rate : 384 Kbps
Channel(s) : 6 channels
Channel positions : Front: L C R, Side: L R, LFE
Sampling rate : 48.0 KHz
Bit depth : 16 bits
Compression mode : Lossy
Stream size : 113 MiB (8%)
Title : AC3 5.1 @ 384 kbps
Language : English
Default : Yes
Forced : No

File Name Size
Lipstick.Jungle.S01E01.720p.WEB DL.DD.5.1.H.264 TvR.mkv 1.37 GB
Lipstick.Jungle.S01E02.720p.WEB DL.DD.5.1.H.264 TvR.mkv 1.32 GB
Lipstick.Jungle.S01E03.720p.WEB DL.DD.5.1.H.264 TvR.mkv 1.34 GB
Lipstick.Jungle.S01E04.720p.WEB DL.DD.5.1.H.264 TvR.mkv 1.33 GB
Lipstick.Jungle.S01E05.720p.WEB DL.DD.5.1.H.264 TvR.mkv 1.29 GB
Lipstick.Jungle.S01E06.720p.WEB DL.DD.5.1.H.264 TvR.mkv 1.33 GB
Lipstick.Jungle.S01E07.720p.WEB DL.DD.5.1.H.264 TvR.mkv 1.28 GB
File Name Size
tvr lipstick jungle s02e01 720p.mkv 1.32 GB
tvr lipstick jungle s02e02 720p.mkv 1.37 GB
tvr lipstick jungle s02e03 720p.mkv 1.26 GB
tvr lipstick jungle s02e04 720p.mkv 1.31 GB
tvr lipstick jungle s02e05 720p.mkv 1.33 GB
tvr lipstick jungle s02e06 720p.mkv 1.28 GB
tvr lipstick jungle s02e07 720p.mkv 1.30 GB
tvr lipstick jungle s02e08 720p.mkv 1.34 GB
tvr lipstick jungle s02e09 720p.mkv 1.34 GB
tvr lipstick jungle s02e10 720p.mkv 1.31 GB
tvr lipstick jungle s02e11 720p.mkv 1.32 GB
tvr lipstick jungle s02e12 720p.mkv 1.33 GB
tvr lipstick jungle s02e13 720p.mkv 1.35 GB

Screenshot:

Sign up via clicking banner and a file link to creat a premium account.Then Get the access to protected links.

ExtMatrix Download Links

Click Here for downloading links Lipstick Jungle S01 S02 Comeplete 720p WEB-DL DD5.1 h.264 TvR