External Links:
****************************************************************
Mad.Men.S06.720p.Bluray.DD5.1-NTb                                         
****************************************************************
Source 1.............: Mad.Men.S06.1080p.NOR.Blu-ray.AVC.DTS-HD.MA.5.1-ESiR
Source 2.............: Mad.Men.S06.1080p.UK.Blu-ray.AVC.DTS-HD.MA.5.1-NTb
No. of Episodes......: 13
Subtitles............: English, English SDH (srt.)
Chapters.............: No

General Information
Container............: Matroska
Episode Length.......: ~47mn
Episode Size.........: ~4GB
Season Size......... : 50.8GB
Video Info
Codec................: AVC
Format Profile Level.: High@L4.1
Bitrate..............: ~10.5 Mbps
Resolution...........: 1280 x 720 pixels
Aspect Ratio.........: 16:9
Framerate............: 23.976 fps
Audio Info
Audio Stream.........: 1
Codec................: AC-3
Bitrate..............: 640 Kbps
Channels.............: 6 channels
Language.............: English

Notes................: the higher quality 4 disc NOR BD set for
                       this encode, the 3 disc UK set is used only for the English subs.
File Name Size
Mad.Men.S06E01.720p.Bluray.DD5.1.x264 NTb.mkv 3.83 GB
Mad.Men.S06E02.720p.Bluray.DD5.1.x264 NTb.mkv 3.85 GB
Mad.Men.S06E03.720p.Bluray.DD5.1.x264 NTb.mkv 4.01 GB
Mad.Men.S06E04.720p.Bluray.DD5.1.x264 NTb.mkv 3.92 GB
Mad.Men.S06E05.720p.Bluray.DD5.1.x264 NTb.mkv 3.91 GB
Mad.Men.S06E06.720p.Bluray.DD5.1.x264 NTb.mkv 3.85 GB
Mad.Men.S06E07.720p.Bluray.DD5.1.x264 NTb.mkv 4.00 GB
Mad.Men.S06E08.720p.Bluray.DD5.1.x264 NTb.mkv 3.81 GB
Mad.Men.S06E09.720p.Bluray.DD5.1.x264 NTb.mkv 3.93 GB
Mad.Men.S06E10.720p.Bluray.DD5.1.x264 NTb.mkv 3.83 GB
Mad.Men.S06E11.720p.Bluray.DD5.1.x264 NTb.mkv 3.99 GB
Mad.Men.S06E12.720p.Bluray.DD5.1.x264 NTb.mkv 3.91 GB
Mad.Men.S06E13.720p.Bluray.DD5.1.x264 NTb.mkv 3.99 GB

General
Complete name : mad.men.s06e13.720p.bluray.x264-demand.mkv
Format : Matroska
Format version : Version 4 / Version 2
File size : 2.18 GiB
Duration : 47mn 39s
Overall bit rate : 6 554 Kbps

Video
ID : 1
Format : AVC
Format/Info : Advanced Video Codec
Format profile : High@L4.1
Format settings, CABAC : Yes
Format settings, ReFrames : 5 frames
Codec ID : V_MPEG4/ISO/AVC
Duration : 47mn 39s
Bit rate : 5 043 Kbps
Width : 1 280 pixels
Height : 720 pixels
Display aspect ratio : 16:9
Frame rate mode : Constant
Frame rate : 23.976 fps
Color space : YUV
Chroma subsampling : 4:2:0
Bit depth : 8 bits
Scan type : Progressive
Bits/(Pixel*Frame) : 0.228
Stream size : 1.64 GiB (75%)
Title : X264
Writing library : x264 core 133 r2334 a3ac64b
Encoding settings : cabac=1 / ref=5 / deblock=1:0:0 / analyse=0x3:0x133 / me=umh / subme=7 / psy=1 /

Audio
ID : 2
Format : DTS
Format/Info : Digital Theater Systems
Mode : 16
Format settings, Endianness : Big
Codec ID : A_DTS
Duration : 47mn 39s
Bit rate mode : Constant
Bit rate : 1 509 Kbps
Channel(s) : 6 channels
Channel positions : Front: L C R, Side: L R, LFE
Sampling rate : 48.0 KHz
Bit depth : 24 bits
Compression mode : Lossy
Stream size : 514 MiB (23%)
Title : DTS
Language : English
Default : Yes
Forced : No

Menu
00:00:00.000 : en:00:00:00.000
00:00:40.582 : en:00:00:40.582
00:10:46.563 : en:00:10:46.563
00:19:21.202 : en:00:19:21.202
00:27:03.705 : en:00:27:03.705
00:35:13.945 : en:00:35:13.945
00:46:42.425 : en:00:46:42.425

Mad Men S06 Complete 720p BluRay x264 DEMAND

File Name Size
mad.men.s06e01 e02.720p.bluray.x264 demand.mkv 4.37 GB
mad.men.s06e03.720p.bluray.x264 demand.mkv 2.18 GB
mad.men.s06e04.720p.bluray.x264 demand.mkv 2.18 GB
mad.men.s06e05.720p.bluray.x264 demand.mkv 2.18 GB
mad.men.s06e06.720p.bluray.x264 demand.mkv 2.18 GB
mad.men.s06e07.720p.bluray.x264 demand.mkv 2.18 GB
mad.men.s06e08.720p.bluray.x264 demand.mkv 2.18 GB
mad.men.s06e09.720p.bluray.x264 demand.mkv 2.18 GB
mad.men.s06e10.720p.bluray.x264 demand.mkv 2.18 GB
mad.men.s06e11.720p.bluray.x264 demand.mkv 2.18 GB
mad.men.s06e12.720p.bluray.x264 demand.mkv 2.18 GB
mad.men.s06e13.720p.bluray.x264 demand.mkv 2.18 GB

Screenshot:


Sign up via clicking banner and a file link to creat a premium account.

ExtMatrix Download Links
mad.men.s06e01.1080p.web-dl.h264-nts.mkv
mad.men.s06e01.720p.web-dl.h264-nts.ra
mad.men.s06e02.1080p.web-dl.h264-nts.mkv
mad.men.s06e02.720p.web-dl.h264-nts.ra
Mad.Men.S06E04.To.Have.and.To.Hold.1080p.WEB-DL.DD5.1.H.264-BS.mkv
Mad.Men.S06E04.To.Have.and.To.Hold.720p.WEB-DL.DD5.1.H.264-BS.ra
Mad.Men.S06E05.The.Flood.720p.WEB-DL.DD5.1.H.264-BS.ra
Mad.Men.S06E05.The.Flood.1080p.WEB-DL.DD5.1.H.264-BS.mkv
Mad.Men.S06E06.For.Immediate.Release.720p.WEB-DL.AAC2.0.H.264-BS.ra
Mad.Men.S06E08.The.Crash.720p.WEB-DL.DD5.1.H.264-BS.ra
Mad.Men.S06E08.The.Crash.1080p.WEB-DL.DD5.1.H.264-BS.mkv
Mad.Men.S06E10.A.Tale.of.Two.Cities.1080p.WEB-DL.DD5.1.H.264-BS.mkv
Mad.Men.S06E11.Favors.1080p.WEB-DL.DD5.1.H.264-BS.mkv
Mad.Men.S06E12.The.Quality.of.Mercy.720p.WEB-DL.DD5.1.H.264-BS.ra
Mad.Men.S06E13.In.Care.Of.1080p.WEB-DL.DD5.1.H.264-BS.mkv
mad.men.s06e01.1080p.web-dl.h264-nts.mkv
mad.men.s06e02.1080p.web-dl.h264-nts.mkv
mad.men.s06e01-e02.720p.bluray.x264-demand.mkv
mad.men.s06e03.720p.bluray.x264-demand.mkv
mad.men.s06e04.720p.bluray.x264-demand.mkv
mad.men.s06e05.720p.bluray.x264-demand.mkv
mad.men.s06e06.720p.bluray.x264-demand.mkv
mad.men.s06e07.720p.bluray.x264-demand.mkv
mad.men.s06e08.720p.bluray.x264-demand.mkv
mad.men.s06e09.720p.bluray.x264-demand.mkv
mad.men.s06e10.720p.bluray.x264-demand.mkv
mad.men.s06e11.720p.bluray.x264-demand.mkv
mad.men.s06e12.720p.bluray.x264-demand.mkv
mad.men.s06e13.720p.bluray.x264-demand.mkv
Mad.Men.S06E01.720p.Bluray.DD5.1.x264-NTb.part1.ra
Mad.Men.S06E01.720p.Bluray.DD5.1.x264-NTb.part2.ra
Mad.Men.S06E02.720p.Bluray.DD5.1.x264-NTb.part1.ra
Mad.Men.S06E02.720p.Bluray.DD5.1.x264-NTb.part2.ra
Mad.Men.S06E03.720p.Bluray.DD5.1.x264-NTb.part1.ra
Mad.Men.S06E03.720p.Bluray.DD5.1.x264-NTb.part2.ra
Mad.Men.S06E04.720p.Bluray.DD5.1.x264-NTb.part1.ra
Mad.Men.S06E04.720p.Bluray.DD5.1.x264-NTb.part2.ra
Mad.Men.S06E04.720p.Bluray.DD5.1.x264-NTb.part3.ra
Mad.Men.S06E05.720p.Bluray.DD5.1.x264-NTb.part1.ra
Mad.Men.S06E05.720p.Bluray.DD5.1.x264-NTb.part2.ra
Mad.Men.S06E05.720p.Bluray.DD5.1.x264-NTb.part3.ra
Mad.Men.S06E06.720p.Bluray.DD5.1.x264-NTb.part1.ra
Mad.Men.S06E06.720p.Bluray.DD5.1.x264-NTb.part2.ra
Mad.Men.S06E07.720p.Bluray.DD5.1.x264-NTb.part1.ra
Mad.Men.S06E07.720p.Bluray.DD5.1.x264-NTb.part2.ra
Mad.Men.S06E07.720p.Bluray.DD5.1.x264-NTb.part3.ra
Mad.Men.S06E08.720p.Bluray.DD5.1.x264-NTb.part1.ra
Mad.Men.S06E08.720p.Bluray.DD5.1.x264-NTb.part2.ra
Mad.Men.S06E09.720p.Bluray.DD5.1.x264-NTb.part1.ra
Mad.Men.S06E09.720p.Bluray.DD5.1.x264-NTb.part2.ra
Mad.Men.S06E09.720p.Bluray.DD5.1.x264-NTb.part3.ra
Mad.Men.S06E10.720p.Bluray.DD5.1.x264-NTb.part1.ra
Mad.Men.S06E10.720p.Bluray.DD5.1.x264-NTb.part2.ra
Mad.Men.S06E11.720p.Bluray.DD5.1.x264-NTb.part1.ra
Mad.Men.S06E11.720p.Bluray.DD5.1.x264-NTb.part2.ra
Mad.Men.S06E11.720p.Bluray.DD5.1.x264-NTb.part3.ra
Mad.Men.S06E12.720p.Bluray.DD5.1.x264-NTb.part1.ra
Mad.Men.S06E12.720p.Bluray.DD5.1.x264-NTb.part2.ra
Mad.Men.S06E12.720p.Bluray.DD5.1.x264-NTb.part3.ra
Mad.Men.S06E13.720p.Bluray.DD5.1.x264-NTb.part1.ra
Mad.Men.S06E13.720p.Bluray.DD5.1.x264-NTb.part2.ra
Mad.Men.S06E13.720p.Bluray.DD5.1.x264-NTb.part3.ra