External Links:

General
Complete name : Mike.and.Molly.S04E01.Molly.Unleashed.1080p.WEB-DL.DD5.1.H.264-CtrlHD.mkv
Format : Matroska
Format version : Version 2
File size : 809 MiB
Duration : 20mn 4s
Overall bit rate : 5 631 Kbps

Video
ID : 1
Format : AVC
Format/Info : Advanced Video Codec
Format profile : High@L4.0
Format settings, CABAC : Yes
Format settings, ReFrames : 4 frames
Codec ID : V_MPEG4/ISO/AVC
Duration : 20mn 4s
Bit rate : 5 135 Kbps
Width : 1 920 pixels
Height : 1 080 pixels
Display aspect ratio : 16:9
Frame rate mode : Constant
Frame rate : 23.976 fps
Color space : YUV
Chroma subsampling : 4:2:0
Bit depth : 8 bits
Scan type : Progressive
Bits/(Pixel*Frame) : 0.103
Stream size : 738 MiB (91%)
Language : English
Default : Yes
Forced : No
Color primaries : BT.709
Transfer characteristics : BT.709
Matrix coefficients : BT.709

Audio
ID : 2
Format : AC-3
Format/Info : Audio Coding 3
Mode extension : CM (complete main)
Format settings, Endianness : Big
Codec ID : A_AC3
Duration : 20mn 4s
Bit rate mode : Constant
Bit rate : 384 Kbps
Channel(s) : 6 channels
Channel positions : Front: L C R, Side: L R, LFE
Sampling rate : 48.0 KHz
Bit depth : 16 bits
Compression mode : Lossy
Stream size : 55.2 MiB (7%)
Language : English
Default : Yes
Forced : No

Text
ID : 3
Format : UTF-8
Codec ID : S_TEXT/UTF8
Codec ID/Info : UTF-8 Plain Text
Title : CC
Language : English
Default : No
Forced : No

Screenshot:

Sign up via clicking banner and a file link to creat a premium account.Then Get the access to protected links.

ExtMatrix Download Links

Mike.and.Molly.S04E01.Molly.Unleashed.1080p.WEB-DL.DD5.1.H.264-CtrlHD.mkv
Mike.and.Molly.S04E02.The.First.and.Last.Ride-Along.1080p.WEB-DL.DD5.1.H.264-CtrlHD.mkv
Mike.and.Molly.S04E03.Sex.and.Death.1080p.WEB-DL.DD5.1.H.264-CtrlHD.mkv
Mike.and.Molly.S04E04.Careful.What.You.Dig.For.1080p.WEB-DL.DD5.1.H.264-CtrlHD.mkv
Mike.and.Molly.S04E05.Poker.in.the.Front.Looker.in.the.Back.1080p.WEB-DL.DD5.1.H.264-CtrlHD.mkv
Mike.and.Molly.S04E06.Shoeless.Molly.Flynn.1080p.WEB-DL.DD5.1.H.264-CtrlHD.mkv
Mike.and.Molly.S04E07.They.Shoot.Asses.Dont.They.1080p.WEB-DL.DD5.1.H.264-CtrlHD.mkv
Mike.and.Molly.S04E08.What.Molly.Hath.Wrought.1080p.WEB-DL.DD5.1.H.264-CtrlHD.mkv
Mike.and.Molly.S04E09.Mike.&.Mollys.Excellent.Adventure.1080p.WEB-DL.DD5.1.H.264-CtrlHD.mkv
Mike.and.Molly.S04E10.Weekend.at.Peggys.1080p.WEB-DL.DD5.1.H.264-CtrlHD.mkv