Series Info
# of Seasons: 5
Country: UK
Air Day: Sunday
Air Time: 10:00 PM
First Aired: 2009-11-12
Rating: TV-14
Series Status: Returning Series
Runtime: 60 Minutes
Network: E4
Classification: Scripted
TVDB Rating: 8.9
External Links:

Misfits (2009– )

TV Series – 60 min – tvComedy | tvDrama | tvFantasy
8.6

Your rating:

-/10
Ratings: 8.6/10 from 33,625 users
Reviews: 56 user | 10 critic

 

A group of young offenders doing community service get struck by lightning during a storm, and begin to develop superpowers.

General
Complete name : misfits.s05e04.720p.bluray.x264-shortbrehd.mkv
Format : Matroska
Format version : Version 2
File size : 2.18 GiB
Duration : 47mn 33s
Overall bit rate : 6 572 Kbps

Video
ID : 1
Format : AVC
Format/Info : Advanced Video Codec
Format profile : High@L4.1
Format settings, CABAC : Yes
Format settings, ReFrames : 5 frames
Codec ID : V_MPEG4/ISO/AVC
Duration : 47mn 33s
Bit rate : 5 062 Kbps
Width : 1 280 pixels
Height : 720 pixels
Display aspect ratio : 16:9
Frame rate mode : Constant
Frame rate : 25.000 fps
Color space : YUV
Chroma subsampling : 4:2:0
Bit depth : 8 bits
Scan type : Progressive
Bits/(Pixel*Frame) : 0.220
Stream size : 1.64 GiB (75%)
Writing library : x264 core 140 r2377 1ca7bb9
Encoding settings : cabac=1 / ref=5 / deblock=1:-2:-2 / analyse=0x3:0x113 / me=umh / subme=8 / psy=1 /

Audio
ID : 2
Format : DTS
Format/Info : Digital Theater Systems
Mode : 16
Format settings, Endianness : Big
Codec ID : A_DTS
Duration : 47mn 33s
Bit rate mode : Constant
Bit rate : 1 509 Kbps
Channel(s) : 2 channels
Channel positions : Front: L R
Sampling rate : 48.0 KHz
Bit depth : 24 bits
Compression mode : Lossy
Stream size : 513 MiB (23%)
Language : English
Default : Yes
Forced : No

Menu
00:00:00.000 : en:00:00:00.000
00:06:26.200 : en:00:06:26.200
00:19:54.640 : en:00:19:54.640
00:26:59.120 : en:00:26:59.120
00:34:17.120 : en:00:34:17.120
00:44:32.800 : en:00:44:32.800

File Name Size
misfits.s05e01.720p.bluray.x264 shortbrehd.mkv 2.18 GB
misfits.s05e02.720p.bluray.x264 shortbrehd.mkv 2.18 GB
misfits.s05e03.720p.bluray.x264 shortbrehd.mkv 2.18 GB
misfits.s05e04.720p.bluray.x264 shortbrehd.mkv 2.18 GB
misfits.s05e05.720p.bluray.x264 shortbrehd.mkv 2.18 GB
misfits.s05e06.720p.bluray.x264 shortbrehd.mkv 2.18 GB
misfits.s05e07.720p.bluray.x264 shortbrehd.mkv 2.18 GB
misfits.s05e08.720p.bluray.x264 shortbrehd.mkv 2.18 GB

Screenshot:

Sign up via clicking banner and a file link to creat a premium account.Then Get the access to protected links.

ExtMatrix Download Links

misfits.s05e01.720p.bluray.x264-shortbrehd.mkv
misfits.s05e02.720p.bluray.x264-shortbrehd.mkv
misfits.s05e07.720p.bluray.x264-shortbrehd.mkv