Useful link:

IMDB

TVRAGE

TVDB

MediaInfo:
General
Complete name : Mixology.S01E02.Liv.and.Ron.1080p.WEB-DL.DD5.1.H.264-BLS.mkv
Format : Matroska
Format version : Version 4 / Version 2
File size : 864 MiB
Duration : 21mn 34s
Overall bit rate : 5 598 Kbps

Video
ID : 1
Format : AVC
Format/Info : Advanced Video Codec
Format profile : High@L4.0
Format settings, CABAC : Yes
Format settings, ReFrames : 4 frames
Codec ID : V_MPEG4/ISO/AVC
Duration : 21mn 34s
Bit rate : 5 102 Kbps
Width : 1 920 pixels
Height : 1 080 pixels
Display aspect ratio : 16:9
Frame rate mode : Constant
Frame rate : 23.976 fps
Color space : YUV
Chroma subsampling : 4:2:0
Bit depth : 8 bits
Scan type : Progressive
Bits/(Pixel*Frame) : 0.103
Stream size : 787 MiB (91%)
Language : English
Default : Yes
Forced : No
Color primaries : BT.709
Transfer characteristics : BT.709
Matrix coefficients : BT.709

Audio
ID : 2
Format : AC-3
Format/Info : Audio Coding 3
Mode extension : CM (complete main)
Format settings, Endianness : Big
Codec ID : A_AC3
Duration : 21mn 34s
Bit rate mode : Constant
Bit rate : 384 Kbps
Channel(s) : 6 channels
Channel positions : Front: L C R, Side: L R, LFE
Sampling rate : 48.0 KHz
Bit depth : 16 bits
Compression mode : Lossy
Stream size : 59.3 MiB (7%)
Language : English
Default : Yes
Forced : No

Text
ID : 3
Format : UTF-8
Codec ID : S_TEXT/UTF8
Codec ID/Info : UTF-8 Plain Text
Language : English
Default : No
Forced : No

Mixology.S01E01.Tom.and.Maya.1080p.WEB DL.DD5.1.H.264 NTb.mkv 831.66 MB
Mixology.S01E02.Liv.and.Ron.1080p.WEB DL.DD5.1.H.264 NTb.mkv 863.80 MB
Mixology.S01E03.Bruce.and.Jessica.1080p.WEB DL.DD5.1.H.264 NTb.mkv 848.85 MB
Mixology.S01E04.Cal.and.Kacey.1080p.WEB DL.DD5.1.H.264 NTb.mkv 866.03 MB
Mixology.S01E05.Fab.and.Jessica.and.Dominic.1080p.WEB DL.DD5.1.H.264 NTb.mkv 869.19 MB
Mixology.S01E06.Tom.and.Maya.II.1080p.WEB DL.DD5.1.H.264 NTb.mkv 863.33 MB
Mixology.S01E07.Bruce.and.Fab.1080p.WEB DL.DD5.1.H.264 NTb.mkv 858.27 MB
Mixology.S01E08.Jessica.and.Ron.1080p.WEB DL.DD5.1.H.264 NTb.mkv 846.57 MB
Mixology.S01E09.Dominic.and.Kacey.1080p.WEB DL.DD5.1.H.264 NTb.mkv 851.87 MB
Mixology.S01E10.Liv.and.Jim.1080p.WEB DL.DD5.1.H.264 NTb.mkv 798.42 MB
Mixology.S01E11.Bruce.and.Maya.1080p.WEB DL.DD5.1.H.264 NTb.mkv 854.76 MB
Mixology.S01E12.Last.Call.1080p.WEB DL.DD5.1.H.264 NTb.mkv 821.11 MB
Mixology.S01E13.Closing.Time.1080p.WEB DL.DD5.1.H.264 NTb.mkv 879.00 MB

Screenshot:

Sign up via clicking banner and a file link to creat a premium account.Then Get the access to protected links.

ExtMatrix Download Links

Mixology.S01E01.Tom.and.Maya.1080p.WEB-DL.DD5.1.H.264-BLS.mkv
Mixology.S01E02.Liv.and.Ron.1080p.WEB-DL.DD5.1.H.264-BLS.mkv
Mixology.S01E03.Bruce.and.Jessica.1080p.WEB-DL.DD5.1.H.264-NTb.mkv
Mixology.S01E04.Cal.and.Kacey.1080p.WEB-DL.DD5.1.H.264-NTb.mkv
Mixology.S01E05.Fab.and.Jessica.and.Dominic.1080p.WEB-DL.DD5.1.H.264-NTb.mkv
Mixology.S01E07.Bruce.and.Fab.1080p.WEB-DL.DD5.1.H.264-NTb.mkv
Mixology.S01E08.Jessica.and.Ron.1080p.WEB-DL.DD5.1.H.264-NTb.mkv
Mixology.S01E09.Dominic.and.Kacey.1080p.WEB-DL.DD5.1.H.264-NTb.mkv
Mixology.S01E10.Liv.and.Jim.1080p.WEB-DL.DD5.1.H.264-NTb.mkv
Mixology.S01E11.Bruce.and.Maya.1080p.WEB-DL.DD5.1.H.264-NTb.mkv
Mixology.S01E12.Last.Call.1080p.WEB-DL.DD5.1.H.264-NTb.mkv
Mixology.S01E13.Closing.Time.1080p.WEB-DL.DD5.1.H.264-NTb.mkv
Mixology.S01E06.Tom.and.Maya.II.720p.WEB-DL.DD5.1.H.264-NTb.mkv