External Links:

General
Complete name :Modern.Family.S05E02.1080p.WEB-DL.DD5.1.H.264.HKD.mkv
Format : Matroska
Format version : Version 4 / Version 2
File size : 877 MiB
Duration : 21mn 36s
Overall bit rate : 5 679 Kbps
Movie name : ripped by CrazyHDSource.com

Video
ID : 1
Format : AVC
Format/Info : Advanced Video Codec
Format profile : High@L4.0
Format settings, CABAC : Yes
Format settings, ReFrames : 4 frames
Codec ID : V_MPEG4/ISO/AVC
Duration : 21mn 36s
Bit rate : 5 182 Kbps
Width : 1 912 pixels
Height : 1 072 pixels
Display aspect ratio : 16:9
Frame rate mode : Constant
Frame rate : 23.976 fps
Color space : YUV
Chroma subsampling : 4:2:0
Bit depth : 8 bits
Scan type : Progressive
Bits/(Pixel*Frame) : 0.105
Stream size : 801 MiB (91%)
Title : ripped by CrazyHDSource.com
Language : English
Default : Yes
Forced : No
Color primaries : BT.709
Transfer characteristics : BT.709
Matrix coefficients : BT.709

Audio
ID : 2
Format : AC-3
Format/Info : Audio Coding 3
Mode extension : CM (complete main)
Format settings, Endianness : Big
Codec ID : A_AC3
Duration : 21mn 36s
Bit rate mode : Constant
Bit rate : 384 Kbps
Channel(s) : 6 channels
Channel positions : Front: L C R, Side: L R, LFE
Sampling rate : 48.0 KHz
Bit depth : 16 bits
Compression mode : Lossy
Stream size : 59.3 MiB (7%)
Language : English
Default : Yes
Forced : No

Text
ID : 3
Format : UTF-8
Codec ID : S_TEXT/UTF8
Codec ID/Info : UTF-8 Plain Text
Language : English
Default : No
Forced : No

Modern.Family.S05E01.720p.WEB DL.DD5.1.H.264 HWD.mkv 692.51 MB
Modern.Family.S05E02.720p.WEB DL.DD5.1.H.264 HWD.mkv 695.96 MB
Modern.Family.S05E03.720p.WEB DL.DD5.1.H.264 HWD.mkv 720.86 MB
Modern.Family.S05E04.720p.WEB DL.DD5.1.H.264 HWD.mkv 690.80 MB
Modern.Family.S05E05.720p.WEB DL.DD5.1.H.264 HWD.mkv 681.75 MB
Modern.Family.S05E06.720p.WEB DL.DD5.1.H.264 HWD.mkv 670.53 MB
Modern.Family.S05E07.720p.WEB DL.DD5.1.H.264 HWD.mkv 690.87 MB
Modern.Family.S05E08.720p.WEB DL.DD5.1.H.264 HWD.mkv 703.57 MB
Modern.Family.S05E09.720p.WEB DL.DD5.1.H.264 HWD.mkv 701.48 MB
Modern.Family.S05E10.720p.WEB DL.DD5.1.H.264 HWD.mkv 713.33 MB
Modern.Family.S05E11.720p.WEB DL.DD5.1.H.264 HWD.mkv 688.24 MB
Modern.Family.S05E12.720p.WEB DL.DD5.1.H.264 HWD.mkv 713.60 MB
Modern.Family.S05E13.720p.WEB DL.DD5.1.H.264 HWD.mkv 698.49 MB
Modern.Family.S05E14.720p.WEB DL.DD5.1.H.264 HWD.mkv 707.83 MB
Modern.Family.S05E15.720p.WEB DL.DD5.1.H.264 HWD.mkv 648.91 MB
Modern.Family.S05E16.720p.WEB DL.DD5.1.H.264 HWD.mkv 673.37 MB
Modern.Family.S05E17.720p.WEB DL.DD5.1.H.264 HWD.mkv 699.00 MB
Modern.Family.S05E18.720p.WEB DL.DD5.1.H.264 HWD.mkv 707.78 MB
Modern.Family.S05E19.720p.WEB DL.DD5.1.H.264 HWD.mkv 662.46 MB
Modern.Family.S05E20.720p.WEB DL.DD5.1.H.264 HWD.mkv 675.78 MB
Modern.Family.S05E21.720p.WEB DL.DD5.1.H.264 HWD.mkv 717.06 MB
Modern.Family.S05E22.720p.WEB DL.DD5.1.H.264 HWD.mkv 673.76 MB
Modern.Family.S05E23.720p.WEB DL.DD5.1.H.264 HWD.mkv 669.86 MB
Modern.Family.S05E24.720p.WEB DL.DD5.1.H.264 HWD.mkv 677.35 MB

Modern.Family.S05E01.1080p.WEB DL.DD5.1.H.264 HKD.mkv 872.44 MB
Modern.Family.S05E02.1080p.WEB DL.DD5.1.H.264 HKD.mkv 877.39 MB
Modern.Family.S05E03.1080p.WEB DL.DD5.1.H.264 HKD.mkv 879.10 MB
Modern.Family.S05E04.1080p.WEB DL.DD5.1.H.264 HKD.mkv 863.86 MB
Modern.Family.S05E05.1080p.WEB DL.DD5.1.H.264 HKD.mkv 838.14 MB
Modern.Family.S05E06.1080p.WEB DL.DD5.1.H.264 HKD.mkv 871.89 MB
Modern.Family.S05E07.1080p.WEB DL.DD5.1.H.264 HKD.mkv 842.12 MB
Modern.Family.S05E08.1080p.WEB DL.DD5.1.H.264 HKD.mkv 866.11 MB
Modern.Family.S05E09.1080p.WEB DL.DD5.1.H.264 HKD.mkv 862.25 MB
Modern.Family.S05E10.1080p.WEB DL.DD5.1.H.264 HKD.mkv 847.52 MB
Modern.Family.S05E11.1080p.WEB DL.DD5.1.H.264 HKD.mkv 834.44 MB
Modern.Family.S05E12.1080p.WEB DL.DD5.1.H.264 HKD.mkv 829.51 MB
Modern.Family.S05E13.1080p.WEB DL.DD5.1.H.264 HKD.mkv 833.09 MB
Modern.Family.S05E14.1080p.WEB DL.DD5.1.H.264 HKD.mkv 839.44 MB
Modern.Family.S05E15.1080p.WEB DL.DD5.1.H.264 HKD.mkv 832.22 MB
Modern.Family.S05E16.1080p.WEB DL.DD5.1.H.264 HKD.mkv 868.96 MB
Modern.Family.S05E17.1080p.WEB DL.DD5.1.H.264 HKD.mkv 876.49 MB
Modern.Family.S05E18.1080p.WEB DL.DD5.1.H.264 HKD.mkv 873.83 MB
Modern.Family.S05E19.1080p.WEB DL.DD5.1.H.264 HWD.mkv 860.07 MB
Modern.Family.S05E20.1080p.WEB DL.DD5.1.H.264 HKD.mkv 859.10 MB
Modern.Family.S05E21.1080p.WEB DL.DD5.1.H.264 HKD.mkv 869.99 MB
Modern.Family.S05E22.1080p.WEB DL.DD5.1.AAC2.0.H.264-YFN.mkv 824.88 MB
Modern.Family.S05E23.1080p.WEB DL.DD5.1.AAC2.0.H.264-YFN.mkv 848.81 MB
Modern.Family.S05E24.1080p.WEB DL.DD5.1.AAC2.0.H.264-YFN.mkv 859.96 MB

Screenshot:

Sign up via clicking banner and a file link to creat a premium account.Then Get the access to protected links.

ExtMatrix Download Links

Modern.Family.S05E15.720p.WEB-DL.DD5.1.H.264-HWD.mkv

Click Here for downloading links Modern Family S05 Complete Season 1080p WEB-DL DD5.1 AAC2.0 H.264 HWD YFN HKD