External Links:

General
Complete name : Mom.S01E01.Pilot.for.Air.1080p.WEB-DL.DD5.1.H.264-NTb.mkv
Format : Matroska
Format version : Version 4 / Version 2
File size : 899 MiB
Duration : 22mn 43s
Overall bit rate : 5 528 Kbps

Video
ID : 1
Format : AVC
Format/Info : Advanced Video Codec
Format profile : High@L4.0
Format settings, CABAC : Yes
Format settings, ReFrames : 4 frames
Codec ID : V_MPEG4/ISO/AVC
Duration : 22mn 43s
Bit rate : 5 034 Kbps
Width : 1 920 pixels
Height : 1 080 pixels
Display aspect ratio : 16:9
Frame rate mode : Constant
Frame rate : 23.976 fps
Color space : YUV
Chroma subsampling : 4:2:0
Bit depth : 8 bits
Scan type : Progressive
Bits/(Pixel*Frame) : 0.101
Stream size : 819 MiB (91%)
Language : English
Default : Yes
Forced : No
Color primaries : BT.709
Transfer characteristics : BT.709
Matrix coefficients : BT.709

Audio
ID : 2
Format : AC-3
Format/Info : Audio Coding 3
Mode extension : CM (complete main)
Format settings, Endianness : Big
Codec ID : A_AC3
Duration : 22mn 43s
Bit rate mode : Constant
Bit rate : 384 Kbps
Channel(s) : 6 channels
Channel positions : Front: L C R, Side: L R, LFE
Sampling rate : 48.0 KHz
Bit depth : 16 bits
Compression mode : Lossy
Stream size : 62.4 MiB (7%)
Language : English
Default : Yes
Forced : No

Text
ID : 3
Format : UTF-8
Codec ID : S_TEXT/UTF8
Codec ID/Info : UTF-8 Plain Text
Language : English
Default : Yes
Forced : No

Mom.S01.On.the.Set.1080p.WEB-DL.AAC2.0.H.264-HKD.mkv 38.08 MB
Mom.S01.Pilot.Promotion.1080p.WEB-DL.AAC2.0.H.264-HKD.mkv 42.75 MB
Screenshot:

Sign up via clicking banner and a file link to creat a premium account.Then Get the access to protected links.

ExtMatrix Download Links

Mom.S01.Pilot.Promotion.1080p.WEB-DL.AAC2.0.H.264-HKD.mkv
Mom.S01.On.the.Set.1080p.WEB-DL.AAC2.0.H.264-HKD.mkv
Mom.S01E01.Pilot.for.Air.1080p.WEB-DL.DD5.1.H.264-NTb.mkv
Mom.S01E02.A.Pee.Stick.and.an.Asian.Raccoon.1080p.WEB-DL.DD5.1.H.264-NTb.mkv
Mom.S01E03.A.Small.Nervous.Breakdown.and.a.Misplaced.Fork.1080p.WEB-DL.DD5.1.H.264-NTb.mkv
Mom.S01E04.Loathing.and.Tube.Socks.1080p.WEB-DL.DD5.1.H.264-NTb.mkv
Mom.S01E05.Six.Thousand.Bootleg.T-shirts.and.a.Prada.Handbag.720p.WEB-DL.DD5.1.H.264-NTb.mkv
Mom.S01E06.Abstinence.and.Pudding.1080p.WEB-DL.DD5.1.H.264-NTb.mkv
Mom.S01E07.Estrogen.and.a.Hearty.Breakfast.1080p.WEB-DL.DD5.1.H.264-NTb.mkv
Mom.S01E08.Big.Sur.and.Strawberry.Lube.1080p.WEB-DL.DD5.1.H.264-NTb.mkv
Mom.S01E09.720p.HDTV.X264-DIMENSION.mkv
Mom.S01E10.720p.HDTV.X264-DIMENSION.mkv
Mom.S01E11.720p.HDTV.X264-DIMENSION.mkv
Mom.S01E12.720p.HDTV.X264-DIMENSION.mkv
Mom.S01E13.720p.HDTV.X264-DIMENSION.mkv

Click Here for downloading links Mom S01E09 1080p WEB-DL DD5 1 H 264 HKD

Click Here for downloading links Mom S01E10 1080p WEB-DL DD5 1 H 264 HKD

Click Here for downloading links Mom S01E11 1080p WEB-DL DD5 1 H 264 HKD

Click Here for downloading links Mom S01E12 1080p WEB-DL DD5 1 H 264 HKD