Includes iTunes Extras

Useful link:

MediaInfo:
General
Complete name : Monsters.University.2013.1080p.WEB-DL.DD5.1.H.264.HKD.mkv
Format : Matroska
Format version : Version 4 / Version 2
File size : 3.95 GiB
Duration : 1h 43mn
Overall bit rate : 5 453 Kbps
Movie name : ripped by CrazyHDSource.com

Video
ID : 1
Format : AVC
Format/Info : Advanced Video Codec
Format profile : High@L4.0
Format settings, CABAC : Yes
Format settings, ReFrames : 4 frames
Codec ID : V_MPEG4/ISO/AVC
Duration : 1h 43mn
Bit rate : 4 961 Kbps
Width : 1 920 pixels
Height : 1 080 pixels
Display aspect ratio : 16:9
Frame rate mode : Constant
Frame rate : 23.976 fps
Color space : YUV
Chroma subsampling : 4:2:0
Bit depth : 8 bits
Scan type : Progressive
Bits/(Pixel*Frame) : 0.100
Stream size : 3.60 GiB (91%)
Title : ripped by CrazyHDSource.com
Language : English
Default : Yes
Forced : No
Color primaries : BT.709
Transfer characteristics : BT.709
Matrix coefficients : BT.709

Audio
ID : 2
Format : AC-3
Format/Info : Audio Coding 3
Mode extension : CM (complete main)
Format settings, Endianness : Big
Codec ID : A_AC3
Duration : 1h 43mn
Bit rate mode : Constant
Bit rate : 384 Kbps
Channel(s) : 6 channels
Channel positions : Front: L C R, Side: L R, LFE
Sampling rate : 48.0 KHz
Bit depth : 16 bits
Compression mode : Lossy
Stream size : 285 MiB (7%)
Language : English
Default : Yes
Forced : No

Text
ID : 3
Format : UTF-8
Codec ID : S_TEXT/UTF8
Codec ID/Info : UTF-8 Plain Text
Language : English
Default : No
Forced : No

Menu
00:00:00.000 : en:Field Trip
00:06:28.000 : en:Titles
00:07:08.000 : en:Freshman Orientation
00:10:56.000 : en:Roommates
00:12:19.000 : en:First Day
00:16:10.000 : en:Not My Room
00:18:17.000 : en:Pig Chase
00:19:39.000 : en:A Challenge
00:21:08.000 : en:1st Semester Show Down
00:23:46.000 : en:Kicked Out
00:29:23.000 : en:Dream Over
00:30:40.000 : en:Mike’s Plan
00:33:40.000 : en:OK Brothers
00:36:32.000 : en:Initiation
00:38:21.000 : en:First Morning
00:39:24.000 : en:Toxicity Challenge
00:45:13.000 : en:My Way
00:47:16.000 : en:Keep Quiet
00:51:10.000 : en:Party Like Scarers
00:55:21.000 : en:Cute-me Kappa
00:57:27.000 : en:The Big Leagues
01:01:44.000 : en:Teamwork
01:04:38.000 : en:A Seed Of Doubt
01:07:35.000 : en:Final Competition
01:14:09.000 : en:A Betrayal
01:18:09.000 : en:Door Breach
01:19:27.000 : en:Searching For Mike
01:23:55.000 : en:Shut Down
01:24:40.000 : en:The Big Scare
01:28:01.000 : en:Separate Ways
01:32:52.000 : en:Epilogue
01:34:25.000 : en:End Credits

Screenshot:

Sign up via clicking banner and a file link to creat a premium account.Then Get the access to protected links.

ExtMatrix Download Links

CC_Admissions_US.mkv
CC_CollegeComercial_US.mkv
CC_MarchMadness_US.mkv
DOC_CampusLife_US.mkv
DOC_ColorAndLight_US.mkv
DOC_FurryMonsters_US.mkv
DOC_Monthropology_US.mkv
DOC_MusicAppreciation_US.mkv
DOC_PathsToPixar_US.mkv
DOC_ScareGames_US.mkv
DOC_ScareTactics_US.mkv
DOC_StorySchool_US.mkv
DOC_WelcomeToMU_US.mkv
DS_DirectorIntro_US.mkv
DS_DramaClass_US.mkv
DS_MovieNight_US.mkv
DS_Recon_US.mkv
DS_Rivalry_US.mkv
Monsters University - iTunes Extras.menu.rar
PP_MonstersMashUp_B2.mkv
SCRT_IntroTitleDesign_US.mkv
SF_BlueUmbrella_US.mkv
SFT_FratRow_US.mkv
SFT_ScareSchool_US.mkv
SFT_TheCampus_US.mkv
SFT_TheOKHouse_US.mkv
TC_BackThen_US.mkv
TC_Japan_US_B3.mkv
TC_OneNight_US.mkv
TC_Teaser_US.mkv

Click Here for downloading links Monsters University 2013 1080p WEB-DL DD5 1 H 264 HKD