Warning: Invalid argument supplied for foreach() in /home/wwwroot/crazyhdsource.com/wp-content/plugins/wpExtMatrixLink/wpExtMatrixLink.php on line 138


Includes itunes extras:


Useful link:

MediaInfo:
General
Complete name : Mud.1080p.WEB-DL.DD5.1.H.264-HKD.mkv
Format : Matroska
Format version : Version 4 / Version 2
File size : 4.70 GiB
Duration : 2h 10mn
Overall bit rate : 5 142 Kbps
Movie name : ripped by CrazyHDSource.com

Video
ID : 1
Format : AVC
Format/Info : Advanced Video Codec
Format profile : High@L4.0
Format settings, CABAC : Yes
Format settings, ReFrames : 5 frames
Codec ID : V_MPEG4/ISO/AVC
Duration : 2h 10mn
Bit rate : 4 656 Kbps
Width : 1 912 pixels
Height : 808 pixels
Display aspect ratio : 2.35:1
Frame rate mode : Constant
Frame rate : 23.976 fps
Color space : YUV
Chroma subsampling : 4:2:0
Bit depth : 8 bits
Scan type : Progressive
Bits/(Pixel*Frame) : 0.126
Stream size : 4.25 GiB (91%)
Title : ripped by CrazyHDSource.com
Language : English
Default : Yes
Forced : No
Color primaries : BT.709
Transfer characteristics : BT.709
Matrix coefficients : BT.709

Audio
ID : 2
Format : AC-3
Format/Info : Audio Coding 3
Mode extension : CM (complete main)
Format settings, Endianness : Big
Codec ID : A_AC3
Duration : 2h 10mn
Bit rate mode : Constant
Bit rate : 384 Kbps
Channel(s) : 6 channels
Channel positions : Front: L C R, Side: L R, LFE
Sampling rate : 48.0 KHz
Bit depth : 16 bits
Compression mode : Lossy
Stream size : 359 MiB (7%)
Language : English
Default : Yes
Forced : No

Text
ID : 3
Format : UTF-8
Codec ID : S_TEXT/UTF8
Codec ID/Info : UTF-8 Plain Text
Language : English
Default : No
Forced : No

Menu
00:00:00.000 : en:Chapter 1
00:08:00.000 : en:Chapter 2
00:17:10.000 : en:Chapter 3
00:24:50.000 : en:Chapter 4
00:32:17.000 : en:Chapter 5
00:39:47.000 : en:Chapter 6
00:52:03.000 : en:Chapter 7
01:06:20.000 : en:Chapter 8
01:17:46.000 : en:Chapter 9
01:24:50.000 : en:Chapter 10
01:32:29.000 : en:Chapter 11
01:42:06.000 : en:Chapter 12
01:50:35.000 : en:Chapter 13
01:59:00.000 : en:Chapter 14
02:07:03.000 : en:Chapter 15

Screenshot:

Sign up via clicking banner and a file link to creat a premium account.

ExtMatrix Download Links

Click Here for downloading links Mud 1080p WEB-DL DD5.1 H.264 HKD