External Links:

General
Complete name : Nashville.2012.S02E01.1080p.WEB-DL.DD5.1.H.264.HKD.mkv
Format : Matroska
Format version : Version 4 / Version 2
File size : 1.73 GiB
Duration : 43mn 5s
Overall bit rate : 5 745 Kbps
Movie name : ripped by CrazyHDSource.com

Video
ID : 1
Format : AVC
Format/Info : Advanced Video Codec
Format profile : High@L4.0
Format settings, CABAC : Yes
Format settings, ReFrames : 4 frames
Codec ID : V_MPEG4/ISO/AVC
Duration : 43mn 5s
Bit rate : 5 247 Kbps
Width : 1 920 pixels
Height : 1 080 pixels
Display aspect ratio : 16:9
Frame rate mode : Constant
Frame rate : 23.976 fps
Color space : YUV
Chroma subsampling : 4:2:0
Bit depth : 8 bits
Scan type : Progressive
Bits/(Pixel*Frame) : 0.106
Stream size : 1.58 GiB (91%)
Title : ripped by CrazyHDSource.com
Language : English
Default : Yes
Forced : No
Color primaries : BT.709
Transfer characteristics : BT.709
Matrix coefficients : BT.709

Audio
ID : 2
Format : AC-3
Format/Info : Audio Coding 3
Mode extension : CM (complete main)
Format settings, Endianness : Big
Codec ID : A_AC3
Duration : 43mn 5s
Bit rate mode : Constant
Bit rate : 384 Kbps
Channel(s) : 6 channels
Channel positions : Front: L C R, Side: L R, LFE
Sampling rate : 48.0 KHz
Bit depth : 16 bits
Compression mode : Lossy
Stream size : 118 MiB (7%)
Language : English
Default : Yes
Forced : No

Text
ID : 3
Format : UTF-8
Codec ID : S_TEXT/UTF8
Codec ID/Info : UTF-8 Plain Text
Language : English
Default : No
Forced : No

Screenshot:

Sign up via clicking banner and a file link to creat a premium account.Then Get the access to protected links.

ExtMatrix Download Links

10.Series.On.ABC.Drama.Sizzle.720p.WEB-DL.AAC2.0.H.264.HKD.mkv
Nashville.2012.S02E01.720p.HDTV.X264-DIMENSION.mkv
Nashville.2012.S02E02.720p.HDTV.X264-DIMENSION.mkv
Nashville.S02E03.I.Dont.Wanna.Talk.About.It.Now.1080p.WEB-DL.DD5.1.H264.mkv
Nashville.S02E04.You.re.No.Angel.Yourself.1080p.WEB-DL.DD5.1.H264.mkv
Nashville.S02E05.Dont.Open.That.Door.1080p.WEB-DL.DD5.1.H264.mkv
Nashville.S02E06.It.Must.Be.You.1080p.WEB-DL.DD5.1.H264.mkv
Nashville.S02E07.She.s.Got.You.1080p.WEB-DL.DD5.1.H264.mkv
Nashville.2012.S02E08.720p.HDTV.X264-DIMENSION.mkv
Nashville.2012.S02E09.720p.HDTV.X264-DIMENSION.mkv
Nashville.S02E09.I.m.Tired.of.Pretending.1080p.WEB-DL.DD5.1.H264.mkv
Nashville.S02E10.Tomorrow.Never.Comes.1080p.WEB-DL.DD5.1.H264.mkv
Nashville.S02E11.Ill.Keep.Climbing.1080p.WEB-DL.DD5.1.H264.mkv
Nashville.S02E12.Just.for.What.I.Am.1080p.WEB-DL.DD5.1.H264.mkv

Click Here for downloading links Nashville 2012 S02E01 1080p WEB-DL DD5 1 H 264 HKD

Click Here for downloading links Nashville 2012 S02E08 1080p WEB-DL DD5 1 H 264 HKD