External Links:

24th.Sep.2013

General
Complete name : NCIS.Los.Angeles.S05E02.1080p.WEB-DL.DD5.1.H.264.HKD.mkv
Format : Matroska
Format version : Version 4 / Version 2
File size : 1.65 GiB
Duration : 43mn 12s
Overall bit rate : 5 483 Kbps
Movie name : ripped by CrazyHDSource.com

Video
ID : 1
Format : AVC
Format/Info : Advanced Video Codec
Format profile : High@L4.0
Format settings, CABAC : Yes
Format settings, ReFrames : 4 frames
Codec ID : V_MPEG4/ISO/AVC
Duration : 43mn 12s
Bit rate : 4 990 Kbps
Width : 1 920 pixels
Height : 1 080 pixels
Display aspect ratio : 16:9
Frame rate mode : Constant
Frame rate : 23.976 fps
Color space : YUV
Chroma subsampling : 4:2:0
Bit depth : 8 bits
Scan type : Progressive
Bits/(Pixel*Frame) : 0.100
Stream size : 1.51 GiB (91%)
Title : ripped by CrazyHDSource.com
Language : English
Default : Yes
Forced : No
Color primaries : BT.709
Transfer characteristics : BT.709
Matrix coefficients : BT.709

Audio
ID : 2
Format : AC-3
Format/Info : Audio Coding 3
Mode extension : CM (complete main)
Format settings, Endianness : Big
Codec ID : A_AC3
Duration : 43mn 12s
Bit rate mode : Constant
Bit rate : 384 Kbps
Channel(s) : 6 channels
Channel positions : Front: L C R, Side: L R, LFE
Sampling rate : 48.0 KHz
Bit depth : 16 bits
Compression mode : Lossy
Stream size : 119 MiB (7%)
Language : English
Default : Yes
Forced : No

Text
ID : 3
Format : UTF-8
Codec ID : S_TEXT/UTF8
Codec ID/Info : UTF-8 Plain Text
Language : English
Default : No
Forced : No

NCIS.Los.Angeles.S05.Season.4.Recap.1080p.WEB-DL.AAC2.0.H.264-HKD.mkv 168.33 MB
Screenshot:

Sign up via clicking banner and a file link to creat a premium account.Then Get the access to protected links.

ExtMatrix Download Links

NCIS.Los.Angeles.S05.Season.4.Recap.1080p.WEB-DL.AAC2.0.H.264-HKD.mkv
NCIS.Los.Angeles.S05E01.Ascension.720p.WEB-DL.DD5.1.H264.mkv
NCIS.Los.Angeles.S05E02.Impact.720p.WEB-DL.DD5.1.H264.mkv
NCIS.Los.Angeles.S05E03.Omni.1080p.WEB-DL.DD5.1.H264.mkv
NCIS.Los.Angeles.S05E03.Omni.720p.WEB-DL.DD5.1.H264.mkv
NCIS.Los.Angeles.S05E04.Reznikov.N.720p.WEB-DL.DD5.1.H264.mkv
NCIS.Los.Angeles.S05E04.Reznikov.N.1080p.WEB-DL.DD5.1.H264.mkv
NCIS.Los.Angeles.S05E05.Unwritten.Rule.1080p.WEB-DL.DD5.1.H264.mkv
NCIS.Los.Angeles.S05E05.Unwritten.Rule.720p.WEB-DL.DD5.1.H264.mkv
NCIS.Los.Angeles.S05E06.Big.Brother.1080p.WEB-DL.DD5.1.H264.mkv
NCIS.Los.Angeles.S05E06.Big.Brother.720p.WEB-DL.DD5.1.H264.mkv
NCIS.Los.Angeles.S05E07.The.Livelong.Day.720p.WEB-DL.DD5.1.H264.mkv
NCIS.Los.Angeles.S05E08.Fallout.720p.WEB-DL.DD5.1.H264.mkv
NCIS.Los.Angeles.S05E08.Fallout.1080p.WEB-DL.DD5.1.H264.mkv
NCIS.Los.Angeles.S05E10.The.Frozen.Lake.720p.WEB-DL.DD5.1.H264.mkv
NCIS.Los.Angeles.S05E10.The.Frozen.Lake.1080p.WEB-DL.DD5.1.H264.mkv
NCIS.Los.Angeles.S05E11.Iron.Curtain.Rising.1080p.WEB-DL.DD5.1.H264.mkv
NCIS.Los.Angeles.S05E11.Iron.Curtain.Rising.720p.WEB-DL.DD5.1.H264.mkv
NCIS.Los.Angeles.S05E12.Merry.Evasion.1080p.WEB-DL.DD5.1.H264.mkv
NCIS.Los.Angeles.S05E12.Merry.Evasion.720p.WEB-DL.DD5.1.H264.mkv
NCIS.Los.Angeles.S05E13.Allegiance.1080p.WEB-DL.DD5.1.H264.mkv
NCIS.Los.Angeles.S05E13.Allegiance.720p.WEB-DL.DD5.1.H264.mkv

Click Here for downloading links NCIS Los Angeles S05E01 1080p WEB-DL DD5 1 H 264 HKD

Click Here for downloading links NCIS Los Angeles S05E02 1080p WEB-DL DD5 1 H 264 HKD

Click Here for downloading links NCIS Los Angeles S05E07 1080p WEB-DL DD5 1 H 264 HKD

Click Here for downloading links NCIS Los Angeles S05E09 1080p WEB-DL DD5 1 H 264 HKD