External Links:

General
Complete name : NCIS.S11E01.Whiskey.Tango.Foxtrot.1080p.WEB-DL.DD5.1.H.264-CtrlHD.mkv
Format : Matroska
Format version : Version 2
File size : 1.60 GiB
Duration : 43mn 2s
Overall bit rate : 5 321 Kbps

Video
ID : 1
Format : AVC
Format/Info : Advanced Video Codec
Format profile : High@L4.0
Format settings, CABAC : Yes
Format settings, ReFrames : 4 frames
Codec ID : V_MPEG4/ISO/AVC
Duration : 43mn 2s
Bit rate : 4 831 Kbps
Width : 1 920 pixels
Height : 1 080 pixels
Display aspect ratio : 16:9
Frame rate mode : Constant
Frame rate : 23.976 fps
Color space : YUV
Chroma subsampling : 4:2:0
Bit depth : 8 bits
Scan type : Progressive
Bits/(Pixel*Frame) : 0.097
Stream size : 1.45 GiB (91%)
Language : English
Default : Yes
Forced : No
Color primaries : BT.709
Transfer characteristics : BT.709
Matrix coefficients : BT.709

Audio
ID : 2
Format : AC-3
Format/Info : Audio Coding 3
Mode extension : CM (complete main)
Format settings, Endianness : Big
Codec ID : A_AC3
Duration : 43mn 2s
Bit rate mode : Constant
Bit rate : 384 Kbps
Channel(s) : 6 channels
Channel positions : Front: L C R, Side: L R, LFE
Sampling rate : 48.0 KHz
Bit depth : 16 bits
Compression mode : Lossy
Stream size : 118 MiB (7%)
Language : English
Default : Yes
Forced : No

Text
ID : 3
Format : UTF-8
Codec ID : S_TEXT/UTF8
Codec ID/Info : UTF-8 Plain Text
Title : CC
Language : English
Default : No
Forced : No

NCIS.S11.Season.10.Recap.1080p.WEB-DL.AAC2.0.H.264-HKD.mkv 193.08 MB
Screenshot:

Sign up via clicking banner and a file link to creat a premium account.Then Get the access to protected links.

ExtMatrix Download Links

NCIS.S11.Season.10.Recap.1080p.WEB-DL.AAC2.0.H.264-HKD.mkv
NCIS.S11E01.Whiskey.Tango.Foxtrot.720p.WEB-DL.DD5.1.H.264-CtrlHD.mkv
NCIS.S11E01.Whiskey.Tango.Foxtrot.1080p.WEB-DL.DD5.1.H.264-CtrlHD.mkv
NCIS.S11E02.Past.Present.and.Future.720p.WEB-DL.DD5.1.H.264-CtrlHD.mkv
NCIS.S11E02.Past.Present.and.Future.1080p.WEB-DL.DD5.1.H.264-CtrlHD.mkv
NCIS.S11E03.Under.the.Radar.1080p.WEB-DL.DD5.1.H.264-CtrlHD.mkv
NCIS.S11E03.Under.the.Radar.720p.WEB-DL.DD5.1.H.264-CtrlHD.mkv
NCIS.S11E04.Anonymous.Was.a.Woman.720p.WEB-DL.DD5.1.H.264-CtrlHD.mkv
NCIS.S11E04.Anonymous.Was.a.Woman.1080p.WEB-DL.DD5.1.H.264-CtrlHD.mkv
NCIS.S11E05.Once.A.Crook.720p.WEB-DL.DD5.1.H.264-CtrlHD.mkv
NCIS.S11E05.Once.A.Crook.1080p.WEB-DL.DD5.1.H.264-CtrlHD.mkv
NCIS.S11E06.Oil.and.Water.1080p.WEB-DL.DD5.1.H.264-CtrlHD.mkv
NCIS.S11E06.Oil.and.Water.720p.WEB-DL.DD5.1.H.264-CtrlHD.mkv
NCIS.S11E07.Better.Angels.1080p.WEB-DL.DD5.1.H.264-CtrlHD.mkv
NCIS.S11E07.Better.Angels.720p.WEB-DL.DD5.1.H.264-CtrlHD.mkv
NCIS.S11E08.Alibi.720p.WEB-DL.DD5.1.H.264-CtrlHD.mkv
NCIS.S11E08.Alibi.1080p.WEB-DL.DD5.1.H.264-CtrlHD.mkv
NCIS.S11E09.Gut.Check.720p.WEB-DL.DD5.1.H.264-CtrlHD.mkv
NCIS.S11E10.Devil.s.Triad.1080p.WEB-DL.DD5.1.H.264-CtrlHD.mkv
NCIS.S11E10.Devil.s.Triad.720p.WEB-DL.DD5.1.H.264-CtrlHD.mkv
NCIS.S11E11.Homesick.1080p.WEB-DL.DD5.1.H.264-CtrlHD.mkv
NCIS.S11E11.Homesick.720p.WEB-DL.DD5.1.H.264-CtrlHD.mkv
NCIS.S11E12.Kill.Chain.1080p.WEB-DL.DD5.1.H.264-CtrlHD.mkv
NCIS.S11E12.Kill.Chain.720p.WEB-DL.DD5.1.H.264-CtrlHD.mkv
NCIS.S11E13.Double.Back.720p.WEB-DL.DD5.1.H.264-CtrlHD.mkv
NCIS.S11E13.Double.Back.1080p.WEB-DL.DD5.1.H.264-CtrlHD.mkv
NCIS.S11E14.Monsters.And.Men.720p.WEB-DL.DD5.1.H.264-CtrlHD.mkv
NCIS.S11E14.Monsters.And.Men.1080p.WEB-DL.DD5.1.H.264-CtrlHD.mkv
NCIS.S11E15.Bulletproof.720p.WEB-DL.DD5.1.H.264-CtrlHD.mkv
NCIS.S11E16.Dressed.To.Kill.720p.WEB-DL.DD5.1.H.264-CtrlHD.mkv
NCIS.S11E16.Dressed.To.Kill.1080p.WEB-DL.DD5.1.H.264-CtrlHD.mkv
NCIS.S11E17.Rock.And.A.Hard.Place.1080p.WEB-DL.DD5.1.H.264-CtrlHD.mkv
NCIS.S11E17.Rock.And.A.Hard.Place.720p.WEB-DL.DD5.1.H.264-CtrlHD.mkv
NCIS.S11E18.Crescent.City.720p.WEB-DL.DD5.1.H.264-CtrlHD.mkv
NCIS.S11E18.Crescent.City.1080p.WEB-DL.DD5.1.H.264-CtrlHD.mkv
NCIS.S11E19.Crescent.City.Part.II.1080p.WEB-DL.DD5.1.H.264-CtrlHD.mkv
NCIS.S11E19.Crescent.City.Part.II.720p.WEB-DL.DD5.1.H.264-CtrlHD.mkv
NCIS.S11E20.Page.Not.Found.1080p.WEB-DL.DD5.1.H.264-CtrlHD.mkv
NCIS.S11E20.Page.Not.Found.720p.WEB-DL.DD5.1.H.264-CtrlHD.mkv
NCIS.S11E21.Alleged.1080p.WEB-DL.DD5.1.H.264-CtrlHD.mkv
NCIS.S11E21.Alleged.720p.WEB-DL.DD5.1.H.264-CtrlHD.mkv
NCIS.S11E22.Shooter.1080p.WEB-DL.DD5.1.H.264-CtrlHD.mkv
NCIS.S11E22.Shooter.720p.WEB-DL.DD5.1.H.264-CtrlHD.mkv

Click Here for downloading links NCIS S11E09 1080p WEB-DL DD5 1 H 264 pHKD

Click Here for downloading links NCIS S11E15 1080p WEB-DL DD5 1 H 264 pHKD