External Links:

General
Complete name : New.Girl.S03E03.1080p.WEB-DL.DD5.1.H.264.HKD.mkv
Format : Matroska
Format version : Version 4 / Version 2
File size : 911 MiB
Duration : 24mn 6s
Overall bit rate : 5 283 Kbps
Movie name : ripped by CrazyHDSource.com

Video
ID : 1
Format : AVC
Format/Info : Advanced Video Codec
Format profile : High@L4.0
Format settings, CABAC : Yes
Format settings, ReFrames : 4 frames
Codec ID : V_MPEG4/ISO/AVC
Duration : 24mn 6s
Bit rate : 4 794 Kbps
Width : 1 912 pixels
Height : 1 072 pixels
Display aspect ratio : 16:9
Frame rate mode : Constant
Frame rate : 23.976 fps
Color space : YUV
Chroma subsampling : 4:2:0
Bit depth : 8 bits
Scan type : Progressive
Bits/(Pixel*Frame) : 0.098
Stream size : 827 MiB (91%)
Title : ripped by CrazyHDSource.com
Language : English
Default : Yes
Forced : No
Color primaries : BT.709
Transfer characteristics : BT.709
Matrix coefficients : BT.709

Audio
ID : 2
Format : AC-3
Format/Info : Audio Coding 3
Mode extension : CM (complete main)
Format settings, Endianness : Big
Codec ID : A_AC3
Duration : 24mn 6s
Bit rate mode : Constant
Bit rate : 384 Kbps
Channel(s) : 6 channels
Channel positions : Front: L C R, Side: L R, LFE
Sampling rate : 48.0 KHz
Bit depth : 16 bits
Compression mode : Lossy
Stream size : 66.2 MiB (7%)
Language : English
Default : Yes
Forced : No

Text
ID : 3
Format : UTF-8
Codec ID : S_TEXT/UTF8
Codec ID/Info : UTF-8 Plain Text
Language : English
Default : No
Forced : No

File Name Size
New.Girl.S03E23.720p.WEB DL.DD5.1.H.264 HWD.mkv 784.73 MB
New.Girl.S03E22.720p.WEB DL.DD5.1.H.264 HWD.mkv 755.90 MB
New.Girl.S03E21.720p.WEB DL.DD5.1.H.264 HWD.mkv 748.77 MB
New.Girl.S03E20.720p.WEB DL.DD5.1.H.264 HWD.mkv 784.12 MB
New.Girl.S03E19.720p.WEB DL.DD5.1.H.264 HWD.mkv 728.08 MB
New.Girl.S03E18.720p.WEB DL.DD5.1.H.264 HWD.mkv 725.57 MB
New.Girl.S03E17.720p.WEB DL.DD5.1.H.264 HWD.mkv 758.90 MB
New.Girl.S03E16.720p.WEB DL.DD5.1.H.264 HWD.mkv 762.30 MB
New.Girl.S03E15.720p.WEB DL.DD5.1.H.264 HWD.mkv 774.04 MB
New.Girl.S03E14.720p.WEB DL.DD5.1.H.264 HWD.mkv 749.50 MB
New.Girl.S03E13.720p.WEB DL.DD5.1.H.264 HWD.mkv 781.19 MB
New.Girl.S03E12.720p.WEB DL.DD5.1.H.264 HWD.mkv 745.36 MB
New.Girl.S03E11.720p.WEB DL.DD5.1.H.264 HWD.mkv 763.76 MB
New.Girl.S03E10.720p.WEB DL.DD5.1.H.264 HWD.mkv 797.65 MB
New.Girl.S03E09.720p.WEB DL.DD5.1.H.264 HWD.mkv 790.08 MB
New.Girl.S03E08.720p.WEB DL.DD5.1.H.264 HWD.mkv 772.33 MB
New.Girl.S03E07.720p.WEB DL.DD5.1.H.264 HWD.mkv 783.52 MB
New.Girl.S03E06.720p.WEB DL.DD5.1.H.264 HWD.mkv 753.80 MB
New.Girl.S03E05.720p.WEB DL.DD5.1.H.264 HWD.mkv 731.48 MB
New.Girl.S03E04.720p.WEB DL.DD5.1.H.264 HWD.mkv 793.48 MB
New.Girl.S03E03.720p.WEB DL.DD5.1.H.264 HWD.mkv 755.61 MB
New.Girl.S03E02.720p.WEB DL.DD5.1.H.264 HWD.mkv 730.97 MB
New.Girl.S03E01.720p.WEB DL.DD5.1.H.264 HWD.mkv 748.79 MB
File Name Size
New.Girl.S03E01.1080p.WEB DL.DD5.1.H.264 HKD.mkv 919.70 MB
New.Girl.S03E02.1080p.WEB DL.DD5.1.H.264 HKD.mkv 914.87 MB
New.Girl.S03E03.1080p.WEB DL.DD5.1.H.264 HKD.mkv 911.05 MB
New.Girl.S03E04.1080p.WEB DL.DD5.1.H.264 HKD.mkv 904.39 MB
New.Girl.S03E05.1080p.WEB DL.DD5.1.H.264 HKD.mkv 935.68 MB
New.Girl.S03E06.1080p.WEB DL.DD5.1.H.264 HKD.mkv 918.56 MB
New.Girl.S03E07.1080p.WEB DL.DD5.1.H.264 HKD.mkv 981.41 MB
New.Girl.S03E08.1080p.WEB DL.DD5.1.H.264 HKD.mkv 912.00 MB
New.Girl.S03E09.1080p.WEB DL.DD5.1.H.264 HKD.mkv 921.69 MB
New.Girl.S03E10.1080p.WEB DL.DD5.1.H.264 HKD.mkv 929.90 MB
New.Girl.S03E11.1080p.WEB DL.DD5.1.H.264 HKD.mkv 927.06 MB
New.Girl.S03E12.1080p.WEB DL.DD5.1.H.264 HKD.mkv 916.56 MB
New.Girl.S03E13.1080p.WEB DL.DD5.1.H.264 HKD.mkv 944.85 MB
New.Girl.S03E14.1080p.WEB DL.DD5.1.H.264 HKD.mkv 866.01 MB
New.Girl.S03E15.1080p.WEB DL.DD5.1.H.264 HKD.mkv 921.01 MB
New.Girl.S03E16.1080p.WEB DL.DD5.1.H.264 HKD.mkv 909.35 MB
New.Girl.S03E17.1080p.WEB DL.DD5.1.H.264 HKD.mkv 906.78 MB
New.Girl.S03E18.1080p.WEB DL.DD5.1.H.264 HKD.mkv 914.01 MB
New.Girl.S03E19.1080p.WEB DL.DD5.1.H.264 HKD.mkv 929.53 MB
New.Girl.S03E20.1080p.WEB DL.DD5.1.H.264 HKD.mkv 917.02 MB
New.Girl.S03E21.1080p.WEB DL.DD5.1.H.264 HKD.mkv 932.42 MB
New.Girl.S03E22.1080p.WEB DL.DD5.1.H.264 HKD.mkv 907.98 MB
New.Girl.S03E23.1080p.WEB DL.DD5.1.AAC2.0.H.264 YFN.mkv 925.51 MB

Screenshot:

Sign up via clicking banner and a file link to creat a premium account.Then Get the access to protected links.

ExtMatrix Download Links

New.Girl.S03E11.720p.WEB-DL.DD5.1.H.264-HWD.mkv

Click Here for downloading links New Girl S03 Complete Season 1080p WEB-DL DD5 1 AAC2.0 HWD HKD YFN