External Links:

General
Complete name : New.Girl.S03E03.1080p.WEB-DL.DD5.1.H.264.HKD.mkv
Format : Matroska
Format version : Version 4 / Version 2
File size : 911 MiB
Duration : 24mn 6s
Overall bit rate : 5 283 Kbps
Movie name : ripped by CrazyHDSource.com

Video
ID : 1
Format : AVC
Format/Info : Advanced Video Codec
Format profile : High@L4.0
Format settings, CABAC : Yes
Format settings, ReFrames : 4 frames
Codec ID : V_MPEG4/ISO/AVC
Duration : 24mn 6s
Bit rate : 4 794 Kbps
Width : 1 912 pixels
Height : 1 072 pixels
Display aspect ratio : 16:9
Frame rate mode : Constant
Frame rate : 23.976 fps
Color space : YUV
Chroma subsampling : 4:2:0
Bit depth : 8 bits
Scan type : Progressive
Bits/(Pixel*Frame) : 0.098
Stream size : 827 MiB (91%)
Title : ripped by CrazyHDSource.com
Language : English
Default : Yes
Forced : No
Color primaries : BT.709
Transfer characteristics : BT.709
Matrix coefficients : BT.709

Audio
ID : 2
Format : AC-3
Format/Info : Audio Coding 3
Mode extension : CM (complete main)
Format settings, Endianness : Big
Codec ID : A_AC3
Duration : 24mn 6s
Bit rate mode : Constant
Bit rate : 384 Kbps
Channel(s) : 6 channels
Channel positions : Front: L C R, Side: L R, LFE
Sampling rate : 48.0 KHz
Bit depth : 16 bits
Compression mode : Lossy
Stream size : 66.2 MiB (7%)
Language : English
Default : Yes
Forced : No

Text
ID : 3
Format : UTF-8
Codec ID : S_TEXT/UTF8
Codec ID/Info : UTF-8 Plain Text
Language : English
Default : No
Forced : No

New.Girl.S03.Season.3.Sneak.Peek.720p.WEB-DL.AAC2.0.H.264.HKD.mkv 32.53 MB
Screenshot:

Sign up via clicking banner and a file link to creat a premium account.Then Get the access to protected links.

ExtMatrix Download Links

New.Girl.S03.Season.3.Sneak.Peek.720p.WEB-DL.AAC2.0.H.264.HKD.mkv
New.Girl.S03E01.720p.WEB-DL.DD5.1.H.264-HWD.mkv
New.Girl.S03E02.720p.WEB.DL.DD5.1.H.264.HWD.mkv
New.Girl.S03E03.720p.WEB.DL.DD5.1.H.264.HWD.mkv
New.Girl.S03E04.720p.WEB-DL.DD5.1.H.264-HWD.mkv
New.Girl.S03E05.720p.WEB-DL.DD5.1.H.264-HWD.mkv
New.Girl.S03E06.720p.HDTV.X264-DIMENSION.mkv
New.Girl.S03E08.720p.WEB-DL.DD5.1.H.264-HWD.mkv
New.Girl.S03E10.720p.WEB-DL.DD5.1.H.264-HWD.mkv
New.Girl.S03E11.720p.WEB-DL.DD5.1.H.264-HWD.mkv

Click Here for downloading links New Girl S03E01 1080p WEB-DL DD5 1 H 264 HKD

Click Here for downloading links New Girl S03E02 1080p WEB-DL DD5 1 H 264 HKD

Click Here for downloading links New Girl S03E03 1080p WEB-DL DD5 1 H 264 HKD

Click Here for downloading links New Girl S03E04 1080p WEB-DL DD5 1 H 264 HKD

Click Here for downloading links New Girl S03E05 1080p WEB-DL DD5 1 H 264 HKD

Click Here for downloading links New Girl S03E06 1080p WEB-DL DD5 1 H 264 HKD

Click Here for downloading links New Girl S03E07 1080p WEB-DL DD5 1 H 264 HKD

Click Here for downloading links New Girl S03E08 1080p WEB-DL DD5 1 H 264 HKD

Click Here for downloading links New Girl S03E09 1080p WEB-DL DD5 1 H 264 HKD

Click Here for downloading links New Girl S03E10 1080p WEB-DL DD5 1 H 264 HKD

Click Here for downloading links New Girl S03E11 1080p WEB-DL DD5 1 H 264 HKD