Useful link:

MediaInfo:
General
Complete name : Non-Stop.2014.720p.BluRay.X264-AMIABLE.mkv
Format : Matroska
Format version : Version 2
File size : 4.37 GiB
Duration : 1h 46mn
Overall bit rate : 5 868 Kbps

Video
ID : 1
Format : AVC
Format/Info : Advanced Video Codec
Format profile : High@L4.1
Format settings, CABAC : Yes
Format settings, ReFrames : 5 frames
Codec ID : V_MPEG4/ISO/AVC
Duration : 1h 46mn
Bit rate : 4 358 Kbps
Width : 1 280 pixels
Height : 536 pixels
Display aspect ratio : 2.40:1
Frame rate mode : Constant
Frame rate : 23.976 fps
Color space : YUV
Chroma subsampling : 4:2:0
Bit depth : 8 bits
Scan type : Progressive
Bits/(Pixel*Frame) : 0.265
Stream size : 3.16 GiB (72%)
Writing library : x264 core 142 r2431 ac76440
Encoding settings : cabac=1 / ref=5 / deblock=1:-3:-3 / analyse=0x3:0x113 / me=umh / subme=8 / psy=1 /

Audio
ID : 2
Format : DTS
Format/Info : Digital Theater Systems
Mode : 16
Format settings, Endianness : Big
Codec ID : A_DTS
Duration : 1h 46mn
Bit rate mode : Constant
Bit rate : 1 509 Kbps
Channel(s) : 6 channels
Channel positions : Front: L C R, Side: L R, LFE
Sampling rate : 48.0 KHz
Bit depth : 24 bits
Compression mode : Lossy
Stream size : 1.12 GiB (26%)
Language : English
Default : Yes
Forced : No

Text #1
ID : 3
Format : UTF-8
Codec ID : S_TEXT/UTF8
Codec ID/Info : UTF-8 Plain Text
Title : SDH
Language : English
Default : No
Forced : No

Text #2
ID : 4
Format : UTF-8
Codec ID : S_TEXT/UTF8
Codec ID/Info : UTF-8 Plain Text
Language : English
Default : No
Forced : No

Menu
00:00:00.000 : en:00:00:00.000
00:04:24.639 : en:00:04:24.639
00:10:29.045 : en:00:10:29.045
00:14:47.053 : en:00:14:47.053
00:18:51.839 : en:00:18:51.839
00:24:22.127 : en:00:24:22.127
00:29:44.574 : en:00:29:44.574
00:35:48.605 : en:00:35:48.605
00:39:28.491 : en:00:39:28.491
00:45:41.572 : en:00:45:41.572
00:49:03.941 : en:00:49:03.941
00:55:17.731 : en:00:55:17.731
01:01:59.257 : en:01:01:59.257
01:08:42.327 : en:01:08:42.327
01:12:16.999 : en:01:12:16.999
01:18:14.982 : en:01:18:14.982
01:26:02.032 : en:01:26:02.032
01:30:46.191 : en:01:30:46.191
01:36:14.727 : en:01:36:14.727
01:40:13.799 : en:01:40:13.799

Screenshot:

Sign up via clicking banner and a file link to creat a premium account.Then Get the access to protected links.

ExtMatrix Download Links

Non-Stop.2014.720p.BluRay.X264-AMIABLE.mkv