External Links:

General
Complete name : NTSF.SD.SUV.S02E15.1080p.WEB-DL.DD5.1.H.264.HKD.mkv
Format : Matroska
Format version : Version 4 / Version 2
File size : 412 MiB
Duration : 10mn 37s
Overall bit rate : 5 422 Kbps
Movie name : ripped by CrazyHDSource.com
Writing application : mkvmerge v6.0.0 (‘Coming Up For Air’) built on Jan 20 2013 09:52:00
Writing library : libebml v1.3.0 + libmatroska v1.4.0

Video
ID : 1
Format : AVC
Format/Info : Advanced Video Codec
Format profile : High@L4.0
Format settings, CABAC : Yes
Format settings, ReFrames : 4 frames
Codec ID : V_MPEG4/ISO/AVC
Duration : 10mn 37s
Bit rate : 4 930 Kbps
Width : 1 920 pixels
Height : 1 080 pixels
Display aspect ratio : 16:9
Frame rate mode : Constant
Frame rate : 23.976 fps
Color space : YUV
Chroma subsampling : 4:2:0
Bit depth : 8 bits
Scan type : Progressive
Bits/(Pixel*Frame) : 0.099
Stream size : 374 MiB (91%)
Title : ripped by CrazyHDSource.com
Language : English
Default : Yes
Forced : No
Color primaries : BT.709
Transfer characteristics : BT.709
Matrix coefficients : BT.709

Audio
ID : 2
Format : AC-3
Format/Info : Audio Coding 3
Mode extension : CM (complete main)
Format settings, Endianness : Big
Codec ID : A_AC3
Duration : 10mn 37s
Bit rate mode : Constant
Bit rate : 384 Kbps
Channel(s) : 6 channels
Channel positions : Front: L C R, Side: L R, LFE
Sampling rate : 48.0 KHz
Bit depth : 16 bits
Compression mode : Lossy
Stream size : 29.2 MiB (7%)
Language : English
Default : Yes
Forced : No

Text
ID : 3
Format : UTF-8
Codec ID : S_TEXT/UTF8
Codec ID/Info : UTF-8 Plain Text
Language : English
Default : No
Forced : No

File Name Size
NTSF.SD.SUV.S02E01.16.Hop.Street.720p.WEB DL.AAC2.0.H264 NTb.mkv 337.14 MB
NTSF.SD.SUV.S02E02.The.Real.Bicycle.Thief.720p.WEB DL.AAC2.0.H264 NTb.mkv 331.91 MB
NTSF.SD.SUV.S02E03.Sabbath tage.720p.WEB DL.AAC2.0.H264 NTb.mkv 356.39 MB
NTSF.SD.SUV.S02E04.Lights.Camera.Assassination.720p.WEB DL.AAC2.0.H264 NTb.mkv 329.82 MB
NTSF.SD.SUV.S02E05.Time.Angels.720p.WEB DL.AAC2.0.H264 NTb.mkv 340.99 MB
NTSF.SD.SUV.S02E06.Whack A Mole.720p.WEB DL.AAC2.0.H264 NTb.mkv 356.18 MB
NTSF.SD.SUV.S02E07.Robot.Town.720p.WEB DL.AAC2.0.H264 NTb.mkv 337.96 MB
NTSF.SD.SUV.S02E08.Comic Con Flict.720p.WEB DL.AAC2.0.H264 NTb.mkv 338.50 MB
NTSF.SD.SUV.S02E09.The.Return.of.Dragon.Shumway.720p.WEB DL.AAC2.0.H264 NTb.mkv 322.94 MB
NTSF.SD.SUV.S02E10.Family.Dies.720p.WEB DL.AAC2.0.H264 NTb.mkv 354.91 MB
NTSF.SD.SUV.S02E11.Prairie.Dog.Companion.720p.WEB DL.AAC2.0.H264 NTb.mkv 339.76 MB
NTSF.SD.SUV.S02E12.Wasilla.Hills.Cops.720p.WEB DL.AAC2.0.H264 NTb.mkv 343.58 MB
NTSF.SD.SUV.S02E13.The.NTSF.SD.SUV.HISS.Infomercial.720p.WEB DL.AAC2.0.H264 NTb.mkv 316.01 MB
NTSF.SD.SUV.S02E14.Christmas.Activity.720p.WEB DL.AAC2.0.H264 NTb.mkv 333.45 MB
NTSF.SD.SUV.S02E15.Inertia.720p.WEB DL.DD5.1.H264 NTb.mkv 329.00 MB

Screenshot:

Sign up via clicking banner and a file link to creat a premium account.

ExtMatrix Download Links
NTSF.SD.SUV.S02E15.Christmas.Activity.1080p.WEB-DL.AAC2.0.H264-NTb.mkv