External Links:

General
Complete name : Once.Upon.a.Time.in.Wonderland.S01E01.1080p.WEB-DL.DD5.1.H.264.HKD.mkv
Format : Matroska
Format version : Version 4 / Version 2
File size : 1.65 GiB
Duration : 43mn 2s
Overall bit rate : 5 486 Kbps
Movie name : ripped by CrazyHDSource.com

Video
ID : 1
Format : AVC
Format/Info : Advanced Video Codec
Format profile : High@L4.0
Format settings, CABAC : Yes
Format settings, ReFrames : 4 frames
Codec ID : V_MPEG4/ISO/AVC
Duration : 43mn 2s
Bit rate : 4 992 Kbps
Width : 1 920 pixels
Height : 1 080 pixels
Display aspect ratio : 16:9
Frame rate mode : Constant
Frame rate : 23.976 fps
Color space : YUV
Chroma subsampling : 4:2:0
Bit depth : 8 bits
Scan type : Progressive
Bits/(Pixel*Frame) : 0.100
Stream size : 1.50 GiB (91%)
Title : ripped by CrazyHDSource.com
Language : English
Default : Yes
Forced : No
Color primaries : BT.709
Transfer characteristics : BT.709
Matrix coefficients : BT.709

Audio
ID : 2
Format : AC-3
Format/Info : Audio Coding 3
Mode extension : CM (complete main)
Format settings, Endianness : Big
Codec ID : A_AC3
Duration : 43mn 2s
Bit rate mode : Constant
Bit rate : 384 Kbps
Channel(s) : 6 channels
Channel positions : Front: L C R, Side: L R, LFE
Sampling rate : 48.0 KHz
Bit depth : 16 bits
Compression mode : Lossy
Stream size : 118 MiB (7%)
Language : English
Default : Yes
Forced : No

Text
ID : 3
Format : UTF-8
Codec ID : S_TEXT/UTF8
Codec ID/Info : UTF-8 Plain Text
Language : English
Default : No
Forced : No

File name Size
Once.Upon.A.Time.In.Wonderland.S01E01.Down.The.Rabbit.Hole.720p.WEB-DL.DD5.1.H.264-ECI.mkv 1.34 GB
Once.Upon.a.Time.in.Wonderland.S01E02.Trust.Me.720p.WEB-DL.DD5.1.H.264-ECI.mkv 1.29 GB
Once.Upon.a.Time.in.Wonderland.S01E03.Forget.Me.Not.720p.WEB-DL.DD5.1.H.264-ECI.mkv 1.30 GB
Once.Upon.a.Time.in.Wonderland.S01E04.The.Serpent.720p.WEB-DL.DD5.1.H.264-ECI.mkv 1.38 GB
Once.Upon.a.Time.in.Wonderland.S01E05.Heart.Of.Stone.720p.WEB-DL.DD5.1.H.264-ECI.mkv 1.33 GB
Once.Upon.a.Time.in.Wonderland.S01E06.Who’s.Alice.720p.WEB-DL.DD5.1.H.264-ECI.mkv 1.26 GB
Once.Upon.a.Time.in.Wonderland.S01E07.Bad.Blood.720p.WEB-DL.DD5.1.H.264-ECI.mkv 1.35 GB
Once.Upon.a.Time.in.Wonderland.S01E08.Home.720p.WEB-DL.DD5.1.H.264-ECI.mkv 1.33 GB
Once.Upon.a.Time.in.Wonderland.S01E09.Nothing.To.Fear.720p.WEB-DL.DD5.1.H.264-ECI.mkv 1.35 GB
Once.Upon.a.Time.in.Wonderland.S01E10.Dirty.Little.Secrets.720p.WEB-DL.DD5.1.H.264-ECI.mkv 1.31 GB
Once.Upon.a.Time.in.Wonderland.S01E11.Heart.Of.The.Matter.720p.WEB-DL.DD5.1.H.264-ECI.mkv 1.28 GB
Once.Upon.a.Time.in.Wonderland.S01E12.To.Catch.a.Thief.720p.WEB-DL.DD5.1.H.264-ECI.mkv 1.28 GB
Once.Upon.a.Time.in.Wonderland.S01E13.And.They.Lived.720p.WEB-DL.DD5.1.H.264-ECI.mkv 1.34 GB
File name Size
Once.Upon.A.Time.In.Wonderland.S01E01.Down.The.Rabbit.Hole.1080p.WEB-DL.DD5.1.H.264-HKD.mkv 1.65 GB
Once.Upon.a.Time.in.Wonderland.S01E02.Trust.Me.1080p.WEB-DL.DD5.1.H.264-HKD.mkv 1.62 GB
Once.Upon.a.Time.in.Wonderland.S01E03.Forget.Me.Not.1080p.WEB-DL.DD5.1.H.264-HKD.mkv 1.64 GB
Once.Upon.a.Time.in.Wonderland.S01E04.The.Serpent.1080p.WEB-DL.DD5.1.H.264-HKD.mkv 1.60 GB
Once.Upon.a.Time.in.Wonderland.S01E05.Heart.Of.Stone.1080p.WEB-DL.DD5.1.H.264-HKD.mkv 1.65 GB
Once.Upon.a.Time.in.Wonderland.S01E06.Who’s.Alice.1080p.WEB-DL.DD5.1.H.264-HKD.mkv 1.55 GB
Once.Upon.a.Time.in.Wonderland.S01E07.Bad.Blood.1080p.WEB-DL.DD5.1.H.264-HKD.mkv 1.61 GB
Once.Upon.a.Time.in.Wonderland.S01E08.Home.1080p.WEB-DL.DD5.1.H.264-HKD.mkv 1.58 GB
Once.Upon.a.Time.in.Wonderland.S01E09.Nothing.To.Fear.1080p.WEB-DL.DD5.1.H.264-HKD.mkv 1.60 GB
Once.Upon.a.Time.in.Wonderland.S01E10.Dirty.Little.Secrets.1080p.WEB-DL.DD5.1.H.264-HKD.mkv 1.57 GB
Once.Upon.a.Time.in.Wonderland.S01E11.Heart.Of.The.Matter.1080p.WEB-DL.DD5.1.H.264-HKD.mkv 1.59 GB
Once.Upon.a.Time.in.Wonderland.S01E12.To.Catch.a.Thief.1080p.WEB-DL.DD5.1.H.264-HKD.mkv 1.61 GB
Once.Upon.a.Time.in.Wonderland.S01E13.And.They.Lived.1080p.WEB-DL.DD5.1.H.264-HKD.mkv 1.63 GB

 

Screenshot:

Sign up via clicking banner and a file link to creat a premium account.Then Get the access to protected links.

ExtMatrix Download Links

Click Here for downloading links Once Upon a Time in Wonderland S01 Complete 1080p WEB-DL DD5.1 H.264 HKD