Useful link:

MediaInfo:

General
Complete name : One.Percent.More.Humid.2017.1080p.iTunes.WEB-DL.DD5.1.H.264.HKD.mkv
Format : Matroska
Format version : Version 4 / Version 2
File size : 3.49 GiB
Duration : 1h 40mn
Overall bit rate : 4 976 Kbps
Movie name : ripped by CrazyHDSource.com

Video #1
ID : 1
Format : AVC
Format/Info : Advanced Video Codec
Format profile : High@L4.0
Format settings, CABAC : Yes
Format settings, ReFrames : 5 frames
Codec ID : V_MPEG4/ISO/AVC
Duration : 1h 40mn
Bit rate : 4 493 Kbps
Width : 1 920 pixels
Height : 796 pixels
Display aspect ratio : 2.40:1
Frame rate mode : Constant
Frame rate : 23.976 fps
Color space : YUV
Chroma subsampling : 4:2:0
Bit depth : 8 bits
Scan type : Progressive
Bits/(Pixel*Frame) : 0.123
Stream size : 3.15 GiB (90%)
Title : ripped by CrazyHDSource.com
Language : English
Default : Yes
Forced : No
Color primaries : BT.709
Transfer characteristics : BT.709
Matrix coefficients : BT.709
Audio #2
ID : 2
Format : AC-3
Format/Info : Audio Coding 3
Mode extension : CM (complete main)
Format settings, Endianness : Big
Codec ID : A_AC3
Duration : 1h 40mn
Bit rate mode : Constant
Bit rate : 384 Kbps
Channel count : 6 channels
Channel positions : Front: L C R, Side: L R, LFE
Sampling rate : 48.0 KHz
Bit depth : 16 bits
Compression mode : Lossy
Stream size : 276 MiB (8%)
Language : English
Default : Yes
Forced : No
Text #3
ID : 3
Format : UTF-8
Codec ID : S_TEXT/UTF8
Codec ID/Info : UTF-8 Plain Text
Title : CC
Language : English
Default : Yes
Forced : No
Menu
00:00:00.000 : en:1
00:05:02.218 : en:2
00:10:14.488 : en:3
00:17:30.590 : en:4
00:25:12.718 : en:5
00:32:14.639 : en:6
00:37:51.559 : en:7
00:44:01.220 : en:8
00:49:37.681 : en:9
00:54:47.699 : en:10
01:01:50.455 : en:11
01:07:17.031 : en:12
01:11:41.712 : en:13
01:18:06.138 : en:14
01:24:15.131 : en:15
01:31:55.841 : en:16

Screenshot:

Sign up via clicking banner and a file link to creat a premium account.Then Get the access to protected links.

ExtMatrix Download Links

Click Here for downloading links One Percent More Humid 2017 1080p iTunes WEB-DL DD5 1 H 264 HKD