External Links:

General
Complete name : Orange.Is.The.New.Black.S01E12.Fool.Me.Once.720p.WEB-DL.DD5.1.h264-jAh.mkv
Format : Matroska
Format version : Version 2
File size : 1.94 GiB
Duration : 59mn 55s
Overall bit rate : 4 640 Kbps

Video
ID : 1
Format : AVC
Format/Info : Advanced Video Codec
Format profile : High@L3.1
Format settings, CABAC : No
Format settings, ReFrames : 2 frames
Codec ID : V_MPEG4/ISO/AVC
Duration : 59mn 55s
Bit rate : 4 163 Kbps
Width : 1 280 pixels
Height : 718 pixels
Display aspect ratio : 16:9
Frame rate mode : Constant
Frame rate : 23.976 fps
Color space : YUV
Chroma subsampling : 4:2:0
Bit depth : 8 bits
Scan type : Progressive
Bits/(Pixel*Frame) : 0.189
Stream size : 1.74 GiB (90%)
Language : English
Default : Yes
Forced : No
Color primaries : BT.709
Transfer characteristics : BT.709
Matrix coefficients : BT.709

Audio
ID : 2
Format : AC-3
Format/Info : Audio Coding 3
Mode extension : CM (complete main)
Format settings, Endianness : Big
Codec ID : A_AC3
Duration : 59mn 55s
Bit rate mode : Constant
Bit rate : 384 Kbps
Channel(s) : 6 channels
Channel positions : Front: L C R, Side: L R, LFE
Sampling rate : 48.0 KHz
Bit depth : 16 bits
Compression mode : Lossy
Stream size : 165 MiB (8%)
Language : English
Default : Yes
Forced : No

Text
ID : 3
Format : UTF-8
Codec ID : S_TEXT/UTF8
Codec ID/Info : UTF-8 Plain Text
Language : English
Default : Yes
Forced : No

File name Size
Orange.Is.The.New.Black.S01E13.Cant.Fix.Crazy.720p.WEB-DL.DD5.1.h264-jAh.mkv 1.95 GB
Orange.Is.The.New.Black.S01E12.Fool.Me.Once.720p.WEB-DL.DD5.1.h264-jAh.mkv 1.94 GB
Orange.Is.The.New.Black.S01E11.Tall.Men.With.Feelings.720p.WEB-DL.DD5.1.h264-jAh.mkv 1.77 GB
Orange.Is.The.New.Black.S01E10.Bora.Bora.Bora.720p.WEB-DL.DD5.1.h264-jAh.mkv 1.62 GB
Orange.Is.The.New.Black.S01E09.Fucksgiving.720p.WEB-DL.DD5.1.h264-jAh.mkv 1.82 GB
Orange.Is.The.New.Black.S01E08.Moscow.Mule.720p.WEB-DL.DD5.1.h264-jAh.mkv 1.90 GB
Orange.Is.The.New.Black.S01E07.Blood.Donut.720p.WEB-DL.DD5.1.h264-jAh.mkv 1.82 GB
Orange.Is.The.New.Black.S01E06.WAC.Pack.720p.WEB-DL.DD5.1.h264-jAh.mkv 1.75 GB
Orange.Is.The.New.Black.S01E05.The.Chickening.720p.WEB-DL.DD5.1.h264-jAh.mkv 1.63 GB
Orange.Is.The.New.Black.S01E04.Imaginary.Enemies.720p.WEB-DL.DD5.1.h264-jAh.mkv 1.76 GB
Orange.Is.The.New.Black.S01E03.Lesbian.Request.Denied.720p.WEB-DL.DD5.1.h264-jAh.mkv 1.74 GB
Orange.Is.The.New.Black.S01E02.Tit.Punch.720p.WEB-DL.DD5.1.h264-jAh.mkv 1.62 GB
Orange.Is.The.New.Black.S01E01.I.Wasnt.Ready.720p.WEB-DL.DD5.1.h264-jAh.mkv 1.66 GB

Screenshot:

Sign up via clicking banner and a file link to creat a premium account.

ExtMatrix Download Links

Click Here for downloading links Orange Is the New Black S01 Complete 720p WEB-DL DD5.1 H.264 jAh