Series Info
# of Seasons: 6
Country: US
Air Day: Thursday
Air Time: 8:30 PM
First Aired: 2009-04-09
Rating: TV-14
Series Status: Returning Series
Runtime: 30 Minutes
Network: NBC
Classification: Scripted
TVDB Rating: 8.3
External Links:

Parks and Recreation (2009)

TV Series – 21 min – tvComedy
8.6

Your rating:

-/10
Ratings: 8.6/10 from 22,596 users
Reviews: 59 user | 15 critic

 

The absurd antics of an Indiana town’s public officials as they pursue sundry projects to make their city a better place.

 

General
Complete name : Parks.and.Recreation.S06E01E02.1080p.WEB-DL.DD5.1.H.264.HKD.mkv
Format : Matroska
Format version : Version 4 / Version 2
File size : 1.66 GiB
Duration : 42mn 56s
Overall bit rate : 5 530 Kbps
Movie name : ripped by CrazyHDSource.com

Video
ID : 1
Format : AVC
Format/Info : Advanced Video Codec
Format profile : High@L4.0
Format settings, CABAC : Yes
Format settings, ReFrames : 4 frames
Codec ID : V_MPEG4/ISO/AVC
Duration : 42mn 56s
Bit rate : 5 036 Kbps
Width : 1 920 pixels
Height : 1 080 pixels
Display aspect ratio : 16:9
Frame rate mode : Constant
Frame rate : 23.976 fps
Color space : YUV
Chroma subsampling : 4:2:0
Bit depth : 8 bits
Scan type : Progressive
Bits/(Pixel*Frame) : 0.101
Stream size : 1.51 GiB (91%)
Title : ripped by CrazyHDSource.com
Language : English
Default : Yes
Forced : No
Color primaries : BT.709
Transfer characteristics : BT.709
Matrix coefficients : BT.709

Audio
ID : 2
Format : AC-3
Format/Info : Audio Coding 3
Mode extension : CM (complete main)
Format settings, Endianness : Big
Codec ID : A_AC3
Duration : 42mn 56s
Bit rate mode : Constant
Bit rate : 384 Kbps
Channel(s) : 6 channels
Channel positions : Front: L C R, Side: L R, LFE
Sampling rate : 48.0 KHz
Bit depth : 16 bits
Compression mode : Lossy
Stream size : 118 MiB (7%)
Language : English
Default : Yes
Forced : No

Text
ID : 3
Format : UTF-8
Codec ID : S_TEXT/UTF8
Codec ID/Info : UTF-8 Plain Text
Language : English
Default : No
Forced : No

Parks.and.Recreation.S06.Ron.Swanson.vs..Food.720p.WEB-DL.AAC2.0.H.264-HKD.mkv 213.54 MB
Screenshot:

Sign up via clicking banner and a file link to creat a premium account.Then Get the access to protected links.

ExtMatrix Download Links

Parks.and.Recreation.S06.Ron.Swanson.vs..Food.720p.WEB-DL.AAC2.0.H.264-HKD.mkv
Parks.and.Recreation.S06E10.720p.HDTV.X264-DIMENSION.mkv

Click Here for downloading links Parks and Recreation S06E01E02 P1080p WEB-DL DD5 1 H 264 HKD

Click Here for downloading links Parks and Recreation S06E03 P1080p WEB-DL DD5 1 H 264 HKD

Click Here for downloading links Parks and Recreation S06E04 P1080p WEB-DL DD5 1 H 264 HKD

Click Here for downloading links Parks and Recreation S06E05 P1080p WEB-DL DD5 1 H 264 HKD

Click Here for downloading links Parks and Recreation S06E06 S06E07 P1080p WEB-DL DD5 1 H 264 HKD

Click Here for downloading links Parks and Recreation S06E08 S06E09 P1080p WEB-DL DD5 1 H 264 HKD

Click Here for downloading links Parks and Recreation S06E010 P1080p WEB-DL DD5 1 H 264 HKD

Click Here for downloading links Parks and Recreation S06E011 P1080p WEB-DL DD5 1 H 264 HKD