Useful link:

IMDB

TVRAGE

TVDB

MediaInfo:
General
Complete name : Partners.2012.S01E04.720p.HDTV.X264-DIMENSION.mkv
Format : Matroska
Format version : Version 2
File size : 587 MiB
Duration : 21mn 22s
Overall bit rate : 3 841 Kbps

Video
ID : 1
Format : AVC
Format/Info : Advanced Video Codec
Format profile : High@L4.1
Format settings, CABAC : Yes
Format settings, ReFrames : 8 frames
Codec ID : V_MPEG4/ISO/AVC
Duration : 21mn 22s
Bit rate : 3 381 Kbps
Width : 1 280 pixels
Height : 720 pixels
Display aspect ratio : 16:9
Frame rate mode : Constant
Frame rate : 23.976 fps
Color space : YUV
Chroma subsampling : 4:2:0
Bit depth : 8 bits
Scan type : Progressive
Bits/(Pixel*Frame) : 0.153
Stream size : 517 MiB (88%)
Writing library : x264 core 128 r2216 198a7ea
Encoding settings : cabac=1 / ref=8 / deblock=1:-2:-2 / analyse=0x3:0x113 / me=umh / subme=9 / psy=1 /

Audio
ID : 2
Format : AC-3
Format/Info : Audio Coding 3
Mode extension : CM (complete main)
Format settings, Endianness : Big
Codec ID : A_AC3
Duration : 21mn 22s
Bit rate mode : Constant
Bit rate : 384 Kbps
Channel(s) : 6 channels
Channel positions : Front: L C R, Side: L R, LFE
Sampling rate : 48.0 KHz
Bit depth : 16 bits
Compression mode : Lossy
Stream size : 58.7 MiB (10%)
Default : Yes
Forced : No

File Name Size
Partners.2012.S01E01.INTERNAL.720p.HDTV.x264 EVOLVE.mkv 941.93 MB
Partners.2012.S01E02.720p.HDTV.X264 DIMENSION.mkv 606.31 MB
Partners.2012.S01E03.720p.HDTV.X264 DIMENSION.mkv 559.93 MB
Partners.2012.S01E04.720p.HDTV.X264 DIMENSION.mkv 587.31 MB
Partners.2012.S01E05.720p.HDTV.X264 DIMENSION.mkv 624.64 MB
Partners.2012.S01E06.720p.HDTV.X264 DIMENSION.mkv 674.89 MB
Partners.2012.S01E07.720p.HDTV.x264 FiHTV.mkv 494.28 MB
Partners.2012.S01E08.720p.HDTV.x264 FiHTV.mkv 465.71 MB
Partners.2012.S01E09.720p.HDTV.x264 FiHTV.mkv 507.95 MB
Partners.2012.S01E10.720p.HDTV.x264 FiHTV.mkv 500.02 MB
Partners.2012.S01E11.INTERNAL.READNFO.720p.HDTV.x264 FiHTV.mkv 503.51 MB
Partners.2012.S01E12.720p.HDTV.x264 FiHTV.mkv 523.99 MB
Partners.2012.S01E13.720p.HDTV.x264 FiHTV.mkv 458.82 MB

Screenshot:

Sign up via clicking banner and a file link to creat a premium account.Then Get the access to protected links.

ExtMatrix Download Links

Partners.2012.S01E01.INTERNAL.720p.HDTV.x264-EVOLVE.mkv
Partners.2012.S01E02.720p.HDTV.X264-DIMENSION.mkv
Partners.2012.S01E03.720p.HDTV.X264-DIMENSION.mkv
Partners.2012.S01E04.720p.HDTV.X264-DIMENSION.mkv
Partners.2012.S01E05.720p.HDTV.X264-DIMENSION.mkv
Partners.2012.S01E06.720p.HDTV.X264-DIMENSION.mkv
Partners.2012.S01E07.720p.HDTV.x264-FiHTV.mkv
Partners.2012.S01E08.720p.HDTV.x264-FiHTV.mkv
Partners.2012.S01E09.720p.HDTV.x264-FiHTV.mkv
Partners.2012.S01E10.720p.HDTV.x264-FiHTV.mkv
Partners.2012.S01E11.INTERNAL.READNFO.720p.HDTV.x264-FiHTV.mkv
Partners.2012.S01E12.720p.HDTV.x264-FiHTV.mkv
Partners.2012.S01E13.720p.HDTV.x264-FiHTV.mkv
Partners.2012.S01E01.INTERNAL.720p.HDTV.x264-EVOLVE.mkv
Partners.2012.S01E03.720p.HDTV.X264-DIMENSION.mkv
Partners.2012.S01E07.720p.HDTV.x264-FiHTV.mkv
Partners.2012.S01E12.720p.HDTV.x264-FiHTV.mkv