External Links:

General
Complete name : Perception.S02E01.1080p.WEB-DL.DD5.1.H.264.HKD.mkv
Format : Matroska
Format version : Version 4 / Version 2
File size : 1.57 GiB
Duration : 42mn 15s
Overall bit rate : 5 330 Kbps
Movie name : ripped by CrazyHDSource.com
Writing application : mkvmerge v6.0.0 (‘Coming Up For Air’) built on Jan 20 2013 09:52:00
Writing library : libebml v1.3.0 + libmatroska v1.4.0

Video
ID : 1
Format : AVC
Format/Info : Advanced Video Codec
Format profile : High@L4.0
Format settings, CABAC : Yes
Format settings, ReFrames : 4 frames
Codec ID : V_MPEG4/ISO/AVC
Duration : 42mn 15s
Bit rate : 4 840 Kbps
Width : 1 920 pixels
Height : 1 080 pixels
Display aspect ratio : 16:9
Frame rate mode : Constant
Frame rate : 23.976 fps
Color space : YUV
Chroma subsampling : 4:2:0
Bit depth : 8 bits
Scan type : Progressive
Bits/(Pixel*Frame) : 0.097
Stream size : 1.43 GiB (91%)
Title : ripped by CrazyHDSource.com
Language : English
Default : Yes
Forced : No
Color primaries : BT.709
Transfer characteristics : BT.709
Matrix coefficients : BT.709

Audio
ID : 2
Format : AC-3
Format/Info : Audio Coding 3
Mode extension : CM (complete main)
Format settings, Endianness : Big
Codec ID : A_AC3
Duration : 42mn 15s
Bit rate mode : Constant
Bit rate : 384 Kbps
Channel(s) : 6 channels
Channel positions : Front: L C R, Side: L R, LFE
Sampling rate : 48.0 KHz
Bit depth : 16 bits
Compression mode : Lossy
Stream size : 116 MiB (7%)
Language : English
Default : Yes
Forced : No

Text
ID : 3
Format : UTF-8
Codec ID : S_TEXT/UTF8
Codec ID/Info : UTF-8 Plain Text
Language : English
Default : No
Forced : No

File Name Size
Perception.S02E01.720p.WEB DL.DD5.1.H.264 KiNGS.mkv 1.31 GB
Perception.S02E02.720p.WEB DL.DD5.1.H.264 KiNGS.mkv 1.34 GB
Perception.S02E03.720p.WEB DL.DD5.1.H.264 KiNGS.mkv 1.29 GB
Perception.S02E04.720p.WEB DL.DD5.1.H.264 KiNGS.mkv 1.25 GB
Perception.S02E05.720p.WEB DL.DD5.1.H.264 KiNGS.mkv 1.30 GB
Perception.S02E06.720p.WEB DL.DD5.1.H.264 KiNGS.mkv 1.25 GB
Perception.S02E07.720p.WEB DL.DD5.1.H.264 KiNGS.mkv 1.27 GB
Perception.S02E08.720p.WEB DL.DD5.1.H.264 KiNGS.mkv 1.32 GB
Perception.S02E09.720p.WEB DL.DD5.1.H.264 KiNGS.mkv 1.30 GB
Perception.S02E10.720p.WEB DL.DD5.1.H.264 KiNGS.mkv 1.29 GB
Perception.S02E11.720p.WEB DL.DD5.1.H.264 KiNGS.mkv 1.27 GB
Perception.S02E12.720p.WEB DL.DD5.1.H.264 KiNGS.mkv 1.31 GB
Perception.S02E13.720p.WEB DL.DD5.1.H.264 KiNGS.mkv 1.37 GB
Perception.S02E14.720p.WEB DL.DD5.1.H.264 KiNGS.mkv 1.29 GB
File Name Size
Perception.S02E01.1080p.WEB DL.DD5.1.H.264 HKD.mkv 1.57 GB
Perception.S02E02.1080p.WEB DL.DD5.1.H.264 HKD.mkv 1.63 GB
Perception.S02E03.1080p.WEB DL.DD5.1.H.264 HKD.mkv 1.60 GB
Perception.S02E04.1080p.WEB DL.DD5.1.H.264 HKD.mkv 1.55 GB
Perception.S02E05.1080p.WEB DL.DD5.1.H.264 Abjex.mkv 1.53 GB
Perception.S02E06.1080p.WEB DL.DD5.1.H.264 Abjex.mkv 1.60 GB
Perception.S02E07.1080p.WEB DL.DD5.1.H.264 Abjex.mkv 1.51 GB
Perception.S02E08.1080p.WEB DL.DD5.1.H.264 HKD.mkv 1.65 GB
Perception.S02E09.1080p.WEB DL.DD5.1.H.264 HKD.mkv 1.55 GB
Perception.S02E10.1080p.WEB DL.DD5.1.H.264 HKD.mkv 1.58 GB
Perception.S02E11.1080p.WEB DL.DD5.1.H.264 HKD.mkv 1.62 GB
Perception.S02E12.1080p.WEB DL.DD5.1.H.264 HKD.mkv 1.62 GB
Perception.S02E13.1080p.WEB DL.DD5.1.H.264 HKD.mkv 1.59 GB
Perception.S02E14.1080p.WEB DL.DD5.1.H.264 HKD.mkv 1.61 GB

Screenshot:

Sign up via clicking banner and a file link to creat a premium account.

ExtMatrix Download Links

Perception.S02E01.1080p.WEB-DL.DD5.1.H.264.HKD.part1.rar
Perception.S02E04.1080p.WEB-DL.DD5.1.H.264.HKD.part1.rar
Perception.S02E07.Neuropositive.1080p.WEB-DL.DD5.1.H.264-Abjex.mkv
Perception.S02E10.1080p.WEB-DL.DD5.1.H.264.HKD.part1.rar
Perception.S02E11.1080p.WEB-DL.DD5.1.H.264.HKD.part1.rar
Perception.S02E11.1080p.WEB-DL.DD5.1.H.264.HKD.part2.rar
Perception.S02E12.1080p.WEB-DL.DD5.1.H.264.HKD.part1.rar
Perception.S02E12.1080p.WEB-DL.DD5.1.H.264.HKD.part2.rar
Perception.S02E14.1080p.WEB-DL.DD5.1.H.264.HKD.part1.rar
Perception.S02E14.1080p.WEB-DL.DD5.1.H.264.HKD.part2.rar
Perception.S02E01.720p.WEB-DL.DD5.1.H.264-KiNGS.mkv
Perception.S02E02.720p.WEB-DL.DD5.1.H.264-KiNGS.mkv
Perception.S02E03.720p.WEB-DL.DD5.1.H.264-KiNGS.mkv
Perception.S02E04.720p.WEB-DL.DD5.1.H.264-KiNGS.mkv
Perception.S02E05.720p.WEB-DL.DD5.1.H.264-KiNGS.mkv
Perception.S02E06.720p.WEB-DL.DD5.1.H.264-KiNGS.mkv
Perception.S02E07.720p.WEB-DL.DD5.1.H.264-KiNGS.mkv
Perception.S02E08.720p.WEB-DL.DD5.1.H.264-KiNGS.mkv
Perception.S02E09.720p.WEB-DL.DD5.1.H.264-KiNGS.mkv
Perception.S02E10.720p.WEB-DL.DD5.1.H.264-KiNGS.mkv
Perception.S02E11.720p.WEB-DL.DD5.1.H.264-KiNGS.mkv
Perception.S02E12.720p.WEB-DL.DD5.1.H.264-KiNGS.mkv
Perception.S02E13.720p.WEB-DL.DD5.1.H.264-KiNGS.mkv
Perception.S02E14.720p.WEB-DL.DD5.1.H.264-KiNGS.mkv
Perception.S02E09.1080p.WEB-DL.DD5.1.H.264-KiNGS.mkv
Perception.S02E13.1080p.WEB-DL.DD5.1.H.264-KiNGS.mkv