External Links:

 

General
Complete name : Psych.S08E01.1080p.WEB-DL.DD5.1.H.264.HKD.mkv
Format : Matroska
Format version : Version 4 / Version 2
File size : 1.75 GiB
Duration : 46mn 5s
Overall bit rate : 5 422 Kbps
Movie name : ripped by CrazyHDSource.com

Video
ID : 1
Format : AVC
Format/Info : Advanced Video Codec
Format profile : High@L4.0
Format settings, CABAC : Yes
Format settings, ReFrames : 4 frames
Codec ID : V_MPEG4/ISO/AVC
Duration : 46mn 5s
Bit rate : 4 930 Kbps
Width : 1 920 pixels
Height : 1 080 pixels
Display aspect ratio : 16:9
Frame rate mode : Constant
Frame rate : 23.976 fps
Color space : YUV
Chroma subsampling : 4:2:0
Bit depth : 8 bits
Scan type : Progressive
Bits/(Pixel*Frame) : 0.099
Stream size : 1.59 GiB (91%)
Title : ripped by CrazyHDSource.com
Language : English
Default : Yes
Forced : No
Color primaries : BT.709
Transfer characteristics : BT.709
Matrix coefficients : BT.709

Audio
ID : 2
Format : AC-3
Format/Info : Audio Coding 3
Mode extension : CM (complete main)
Format settings, Endianness : Big
Codec ID : A_AC3
Duration : 46mn 5s
Bit rate mode : Constant
Bit rate : 384 Kbps
Channel(s) : 6 channels
Channel positions : Front: L C R, Side: L R, LFE
Sampling rate : 48.0 KHz
Bit depth : 16 bits
Compression mode : Lossy
Stream size : 127 MiB (7%)
Language : English
Default : Yes
Forced : No

Text
ID : 3
Format : UTF-8
Codec ID : S_TEXT/UTF8
Codec ID/Info : UTF-8 Plain Text
Language : English
Default : No
Forced : No

Psych.S08E01.Lock.Stock.Some.Smoking.Barrels.And.Burton.Guster’s.Boblet.Of.Fire.1080p.WEB DL.DD5.1.H.264 HKD.mkv 1.75 GB
Psych.S08E02.S.E.I.Z.E.The.Day.1080p.WEB DL.DD5.1.H.264 ECI.mkv 1.62 GB
Psych.S08E03.Remake.A.K.A.Cloudy.With.A.Chance.Of.Improvement.1080p.PROPER.WEB DL.DD5.1.H.264 HKD.mkv 1.61 GB
Psych.S08E04.Someone’s.Got.A.Woody.1080p.WEB DL.DD5.1.H.264 HKD.mkv 1.66 GB
Psych.S08E05.Cog.Blocked.1080p.WEB DL.DD5.1.H.264 HKD.mkv 1.61 GB
Psych.S08E06.1967.A.Psych.Odyssey.1080p.WEB DL.DD5.1.H.264 ECI.mkv 1.62 GB
Psych.S08E07.Shawn.and.Gus.Truck.Things.Up.1080p.WEB DL.DD5.1.H.264 ECI.mkv 1.63 GB
Psych.S08E08.A.Touch.Of.Sweevil.1080p.WEB DL.DD5.1.H.264 ECI.mkv 1.63 GB
Psych.S08E09.A.Nightmare.On.State.Street.1080p.WEB DL.DD5.1.H.264 ECI.mkv 1.49 GB
Psych.S08E10.The.Break Up.1080p.WEB DL.DD5.1.H.264 ECI.mkv 1.82 GB

Screenshot:

Sign up via clicking banner and a file link to creat a premium account.

ExtMatrix Download Links

Psych.S08E02.S.E.I.Z.E.The.Day.1080p.WEB-DL.DD5.1.H.264-ECI.mkv
Psych.S08E03.1080p.WEB-DL.DD5.1.H.264.HKD.part1.rar
Psych.S08E03.1080p.WEB-DL.DD5.1.H.264.HKD.part2.rar
Psych.S08E05.1080p.WEB-DL.DD5.1.H.264.HKD.part1.rar