External Links:

General
Complete name : Queer.as.Folk.UK.S02E01.DVDRip.x264-thr33face.mkv
Format : Matroska
Format version : Version 4 / Version 2
File size : 764 MiB
Duration : 46mn 51s
Overall bit rate : 2 279 Kbps

Video
ID : 1
Format : AVC
Format/Info : Advanced Video Codec
Format profile : High@L3.1
Format settings, CABAC : Yes
Format settings, ReFrames : 8 frames
Codec ID : V_MPEG4/ISO/AVC
Duration : 46mn 51s
Bit rate : 1 786 Kbps
Width : 716 pixels
Height : 572 pixels
Display aspect ratio : 1.85:1
Original display aspect ratio : 1.85:1
Frame rate mode : Constant
Frame rate : 25.000 fps
Color space : YUV
Chroma subsampling : 4:2:0
Bit depth : 8 bits
Scan type : Progressive
Bits/(Pixel*Frame) : 0.174
Stream size : 599 MiB (78%)
Writing library : x264 core 138 r2358 9e941d1
Encoding settings : cabac=1 / ref=8 / deblock=1:-2:-2 / analyse=0x3:0x133 / me=umh / subme=10 /

Audio #1
ID : 2
Format : AC-3
Format/Info : Audio Coding 3
Mode extension : CM (complete main)
Format settings, Endianness : Big
Codec ID : A_AC3
Duration : 46mn 51s
Bit rate mode : Constant
Bit rate : 224 Kbps
Channel(s) : 2 channels
Channel positions : Front: L R
Sampling rate : 48.0 KHz
Bit depth : 16 bits
Compression mode : Lossy
Stream size : 75.1 MiB (10%)
Language : English
Default : Yes
Forced : No

Audio #2
ID : 3
Format : AC-3
Format/Info : Audio Coding 3
Mode extension : CM (complete main)
Format settings, Endianness : Big
Codec ID : A_AC3
Duration : 46mn 51s
Bit rate mode : Constant
Bit rate : 224 Kbps
Channel(s) : 2 channels
Channel positions : Front: L R
Sampling rate : 48.0 KHz
Bit depth : 16 bits
Compression mode : Lossy
Stream size : 75.1 MiB (10%)
Title : Commentary
Language : English
Default : No
Forced : No

Text
ID : 4
Format : UTF-8
Codec ID : S_TEXT/UTF8
Codec ID/Info : UTF-8 Plain Text
Language : English
Default : No
Forced : No

File Name Size
Queer.as.Folk.UK.S01E01.DVDRip.x264 thr33face.mkv 489.77 MB
Queer.as.Folk.UK.S01E02.DVDRip.x264 thr33face.mkv 405.12 MB
Queer.as.Folk.UK.S01E03.DVDRip.x264 thr33face.mkv 520.37 MB
Queer.as.Folk.UK.S01E04.DVDRip.x264 thr33face.mkv 412.76 MB
Queer.as.Folk.UK.S01E05.DVDRip.x264 thr33face.mkv 378.16 MB
Queer.as.Folk.UK.S01E06.DVDRip.x264 thr33face.mkv 411.10 MB
Queer.as.Folk.UK.S01E07.DVDRip.x264 thr33face.mkv 375.89 MB
Queer.as.Folk.UK.S01E08.DVDRip.x264 thr33face.mkv 423.29 MB
File Name Size
Queer.as.Folk.UK.S02E01.DVDRip.x264 thr33face.mkv 763.89 MB
Queer.as.Folk.UK.S02E02.DVDRip.x264 thr33face.mkv 847.65 MB

Screenshot:

Sign up via clicking banner and a file link to creat a premium account.Then Get the access to protected links.

ExtMatrix Download Links

Queer.as.Folk.UK.S01E01.DVDRip.x264-thr33face.mkv

Click Here for downloading links Queer as Folk UK S01 S02 DVDRip x264 thr33face