Series Info

# of Seasons: 4
Country: US
Air Day: Tuesday
Air Time: 9:00 PM
First Aired: 2010-09-21
Rating: TV-14
Series Status: Returning Series
Runtime: 30 Minutes
Network: FOX
Classification: Scripted
TVDB Rating: 8.6
External Links:

Raising Hope (2010)

TV Series – TV_14 22 min – tvComedy | tvDrama | tvFamily
8.1

Your rating:

-/10
Ratings: 8.1/10 from 12,961 users
Reviews: 32 user | 8 critic

 

Jimmy becomes a single parent to an infant after the mother he had a one-night stand with ends up on death row.

General
Complete name : Raising.Hope.S04E02.Burt.Bucks.1080p.WEB-DL.DD5.1.H.264-BS.mkv
Format : Matroska
Format version : Version 2
File size : 946 MiB
Duration : 24mn 0s
Overall bit rate : 5 507 Kbps

Video
ID : 1
Format : AVC
Format/Info : Advanced Video Codec
Format profile : High@L4.0
Format settings, CABAC : Yes
Format settings, ReFrames : 4 frames
Codec ID : V_MPEG4/ISO/AVC
Duration : 24mn 0s
Bit rate : 5 014 Kbps
Width : 1 912 pixels
Height : 1 072 pixels
Display aspect ratio : 16:9
Frame rate mode : Constant
Frame rate : 23.976 fps
Color space : YUV
Chroma subsampling : 4:2:0
Bit depth : 8 bits
Scan type : Progressive
Bits/(Pixel*Frame) : 0.102
Stream size : 861 MiB (91%)
Language : English
Default : Yes
Forced : No
Color primaries : BT.709
Transfer characteristics : BT.709
Matrix coefficients : BT.709

Audio
ID : 2
Format : AC-3
Format/Info : Audio Coding 3
Mode extension : CM (complete main)
Format settings, Endianness : Big
Codec ID : A_AC3
Duration : 24mn 0s
Bit rate mode : Constant
Bit rate : 384 Kbps
Channel(s) : 6 channels
Channel positions : Front: L C R, Side: L R, LFE
Sampling rate : 48.0 KHz
Bit depth : 16 bits
Compression mode : Lossy
Stream size : 65.9 MiB (7%)
Language : English
Default : Yes
Forced : No

Text
ID : 3
Format : UTF-8
Codec ID : S_TEXT/UTF8
Codec ID/Info : UTF-8 Plain Text
Title : CC
Language : English
Default : No
Forced : No

Screenshot:

Sign up via clicking banner and a file link to creat a premium account.Then Get the access to protected links.

ExtMatrix Download Links

Raising.Hope.S04E01.Deja.Vu.Man.1080p.WEB-DL.DD5.1.H.264-BS.mkv
Raising.Hope.S04E02.Burt.Bucks.1080p.WEB-DL.DD5.1.H.264-BS.mkv
Raising.Hope.S04E03.Ship.Happens.1080p.WEB-DL.DD5.1.H.264-BS.mkv
Raising.Hope.S04E04.Hi-Def.1080p.WEB-DL.DD5.1.H.264-BS.mkv
Raising.Hope.S04E05.Adoption.1080p.WEB-DL.DD5.1.H.264-BS.mkv
Raising.Hope.S04E06.Extreme.Howdys.Makeover.1080p.WEB-DL.DD5.1.H.264-BS.mkv
Raising.Hope.S04E07.Murder.She.Hoped.1080p.WEB-DL.DD5.1.H.264-BS.mkv
Raising.Hope.S04E08.Dysfunction.Function.1080p.WEB-DL.DD5.1.H.264-BS.mkv
Raising.Hope.S04E09.The.Chance.Who.Stole.Christmas.1080p.WEB-DL.DD5.1.H.264-BS.mkv
Raising.Hope.S04E10.Bee.Story.1080p.WEB-DL.DD5.1.H.264-BS.mkv
Raising.Hope.S04E11.Hey.There.Delilah.1080p.WEB-DL.DD5.1.H.264-BS.mkv
Raising.Hope.S04E12.Hot.Dish.1080p.WEB-DL.DD5.1.H.264-BS.mkv
Raising.Hope.S04E13.The.Thrilla.in.Natesvilla.1080p.WEB-DL.DD5.1.H.264-BS.mkv
Raising.Hope.S04E14.The.Road.to.Natesville.1080p.WEB-DL.DD5.1.H.264-BS.mkv
Raising.Hope.S04E15.Anniversary.Ball.1080p.WEB-DL.DD5.1.H.264-BS.mkv
Raising.Hope.S04E16.The.One.Where.They.Get.High.1080p.WEB-DL.DD5.1.H.264-BS.mkv
Raising.Hope.S04E17.Baby.Phat.1080p.WEB-DL.DD5.1.H.264-BS.mkv
Raising.Hope.S04E18.Dinner.with.the.Tropes.1080p.WEB-DL.DD5.1.H.264-BS.mkv
Raising.Hope.S04E19.Para-Natesville.Activity.1080p.WEB-DL.DD5.1.H.264-BS.mkv
Raising.Hope.S04E20.Man.s.Bes. Friend.1080p.WEB-DL.DD5.1.H.264-BS.mkv