Also Known As (AKA)
World-wide (alternative title) (English title) Rampage 2 You End Now -


Useful link:

MediaInfo:
General
Complete name : Rampage.2.Capital.Punishment.2014.1080p.WEB-DL.DD5.1.H.264.HKD.mkv
Format : Matroska
Format version : Version 4 / Version 2
File size : 3.36 GiB
Duration : 1h 33mn
Overall bit rate : 5 161 Kbps
Movie name : ripped by CrazyHDSource.com

Video
ID : 1
Format : AVC
Format/Info : Advanced Video Codec
Format profile : High@L4.0
Format settings, CABAC : Yes
Format settings, ReFrames : 4 frames
Codec ID : V_MPEG4/ISO/AVC
Duration : 1h 33mn
Bit rate : 4 674 Kbps
Width : 1 920 pixels
Height : 1 080 pixels
Display aspect ratio : 16:9
Frame rate mode : Constant
Frame rate : 23.976 fps
Color space : YUV
Chroma subsampling : 4:2:0
Bit depth : 8 bits
Scan type : Progressive
Bits/(Pixel*Frame) : 0.094
Stream size : 3.04 GiB (91%)
Title : ripped by CrazyHDSource.com
Language : English
Default : Yes
Forced : No
Color primaries : BT.709
Transfer characteristics : BT.709
Matrix coefficients : BT.709

Audio
ID : 2
Format : AC-3
Format/Info : Audio Coding 3
Mode extension : CM (complete main)
Format settings, Endianness : Big
Codec ID : A_AC3
Duration : 1h 33mn
Bit rate mode : Constant
Bit rate : 384 Kbps
Channel(s) : 6 channels
Channel positions : Front: L C R, Side: L R, LFE
Sampling rate : 48.0 KHz
Bit depth : 16 bits
Compression mode : Lossy
Stream size : 256 MiB (7%)
Language : English
Default : Yes
Forced : No

Text
ID : 3
Format : UTF-8
Codec ID : S_TEXT/UTF8
Codec ID/Info : UTF-8 Plain Text
Language : English
Default : No
Forced : No

Menu
00:00:00.000 : en:Chapter 01
00:11:23.000 : en:Chapter 02
00:21:21.000 : en:Chapter 03
00:30:49.000 : en:Chapter 04
00:40:38.000 : en:Chapter 05
00:48:48.000 : en:Chapter 06
00:56:57.000 : en:Chapter 07
01:08:43.000 : en:Chapter 08
01:16:44.000 : en:Chapter 09
01:30:02.000 : en:Chapter 10

Screenshot:

Sign up via clicking banner and a file link to creat a premium account.Then Get the access to protected links.

ExtMatrix Download Links

Click Here for downloading links Rampage 2 Capital Punishment 2014 1080p WEB-DL DD5 1 H 264 HKD