Useful link:

MediaInfo:
General
Complete name : Reasonable.Doubt.2014.1080p.WEB-DL.H264-PublicHD.mkv
Format : Matroska
Format version : Version 4 / Version 2
File size : 2.67 GiB
Duration : 1h 31mn
Overall bit rate : 4 193 Kbps

Video
ID : 1
Format : AVC
Format/Info : Advanced Video Codec
Format profile : High@L4.0
Format settings, CABAC : Yes
Format settings, ReFrames : 5 frames
Codec ID : V_MPEG4/ISO/AVC
Duration : 1h 31mn
Bit rate : 3 726 Kbps
Width : 1 908 pixels
Height : 788 pixels
Display aspect ratio : 2.40:1
Frame rate mode : Constant
Frame rate : 23.976 fps
Color space : YUV
Chroma subsampling : 4:2:0
Bit depth : 8 bits
Scan type : Progressive
Bits/(Pixel*Frame) : 0.103
Stream size : 2.38 GiB (89%)
Language : English
Default : Yes
Forced : No
Color primaries : BT.709
Transfer characteristics : BT.709
Matrix coefficients : BT.709

Audio
ID : 2
Format : AC-3
Format/Info : Audio Coding 3
Mode extension : CM (complete main)
Format settings, Endianness : Big
Codec ID : A_AC3
Duration : 1h 31mn
Bit rate mode : Constant
Bit rate : 384 Kbps
Channel(s) : 6 channels
Channel positions : Front: L C R, Side: L R, LFE
Sampling rate : 48.0 KHz
Bit depth : 16 bits
Compression mode : Lossy
Stream size : 251 MiB (9%)
Language : English
Default : Yes
Forced : No

Text
ID : 3
Format : UTF-8
Codec ID : S_TEXT/UTF8
Codec ID/Info : UTF-8 Plain Text
Language : English
Default : Yes
Forced : No

Menu
00:00:00.000 : en:Chapter 1
00:02:44.000 : en:Chapter 2
00:12:43.000 : en:Chapter 3
00:21:38.000 : en:Chapter 4
00:29:52.000 : en:Chapter 5
00:37:34.000 : en:Chapter 6
00:44:29.000 : en:Chapter 7
00:51:39.000 : en:Chapter 8
01:00:00.000 : en:Chapter 9
01:07:04.000 : en:Chapter 10
01:17:59.000 : en:Chapter 11
01:20:03.000 : en:Chapter 12

Screenshot:

Sign up via clicking banner and a file link to creat a premium account.Then Get the access to protected links.

ExtMatrix Download Links

Reasonable.Doubt.2014.1080p.WEB-DL.H264-PublicHD.mkv