External Links:

General
Complete name : Rizzoli.and.Isles.S05E01.1080p.WEB-DL.H.264.DD5.1.HKD.mkv
Format : Matroska
Format version : Version 4 / Version 2
File size : 1.58 GiB
Duration : 42mn 14s
Overall bit rate : 5 370 Kbps
Movie name : ripped by CrazyHDSource.com

Video
ID : 1
Format : AVC
Format/Info : Advanced Video Codec
Format profile : High@L4.0
Format settings, CABAC : Yes
Format settings, ReFrames : 4 frames
Codec ID : V_MPEG4/ISO/AVC
Duration : 42mn 14s
Bit rate : 4 880 Kbps
Width : 1 916 pixels
Height : 1 076 pixels
Display aspect ratio : 16:9
Frame rate mode : Constant
Frame rate : 23.976 fps
Color space : YUV
Chroma subsampling : 4:2:0
Bit depth : 8 bits
Scan type : Progressive
Bits/(Pixel*Frame) : 0.099
Stream size : 1.44 GiB (91%)
Title : ripped by CrazyHDSource.com
Language : English
Default : Yes
Forced : No
Color primaries : BT.709
Transfer characteristics : BT.709
Matrix coefficients : BT.709

Audio
ID : 2
Format : AC-3
Format/Info : Audio Coding 3
Mode extension : CM (complete main)
Format settings, Endianness : Big
Codec ID : A_AC3
Duration : 42mn 14s
Bit rate mode : Constant
Bit rate : 384 Kbps
Channel(s) : 6 channels
Channel positions : Front: L C R, Side: L R, LFE
Sampling rate : 48.0 KHz
Bit depth : 16 bits
Compression mode : Lossy
Stream size : 116 MiB (7%)
Language : English
Default : Yes
Forced : No

Text
ID : 3
Format : UTF-8
Codec ID : S_TEXT/UTF8
Codec ID/Info : UTF-8 Plain Text
Language : English
Default : No
Forced : No

Screenshot:

Sign up via clicking banner and a file link to creat a premium account.

ExtMatrix Download Links

Rizzoli.and.Isles.S05E01.A.New.Day.720p.WEB-DL.DD5.1.h.264-NTb.mkv
Rizzoli.and.Isles.S05E03.Too.Good.To.Be.True.720p.WEB-DL.DD5.1.h.264-NTb.mkv
Rizzoli.and.Isles.S05E04.Doomsday.720p.WEB-DL.DD5.1.h.264-NTb.mkv
Rizzoli.and.Isles.S05E05.The.Best.Laid.Plans.720p.WEB-DL.DD5.1.h.264-NTb.mkv
Rizzoli.and.Isles.S05E06.Knockout.720p.WEB-DL.DD5.1.h.264-NTb.mkv
Rizzoli.and.Isles.S05E08.Lost.and.Found.720p.WEB-DL.DD5.1.h.264-NTb.mkv

Click Here for downloading links Rizzoli and Isles S05E01 1080p WEB-DL H 264 DD5 1 HKD

Click Here for downloading links Rizzoli and Isles S05E02 1080p WEB-DL H 264 DD5 1 HKD

Click Here for downloading links Rizzoli and Isles S05E03 1080p WEB-DL H 264 DD5 1 HKD

Click Here for downloading links Rizzoli and Isles S05E04 1080p WEB-DL H 264 DD5 1 HKD

Click Here for downloading links Rizzoli and Isles S05E05 1080p WEB-DL H 264 DD5 1 HKD

Click Here for downloading links Rizzoli and Isles S05E06 1080p WEB-DL H 264 DD5 1 HKD

Click Here for downloading links Rizzoli and Isles S05E07 1080p WEB-DL H 264 DD5 1 HKD

Click Here for downloading links Rizzoli and Isles S05E08 1080p WEB-DL H 264 DD5 1 HKD

Click Here for downloading links Rizzoli and Isles S05E09 1080p WEB-DL H 264 DD5 1 HKD